.
Авторизация | Регистрация
Хочешь лучшие торренты? Добавь свой email!
Добавить

Торрент скачать бесплатно

» » Алые маки Иссык-Куля (1971) DVDRip торрент скачать бесплатно




    Алые маки Иссык-Куля (1971) DVDRip торрент скачать бесплатно

    Опубликовал: Админ | Дата: 17-06-2016, 04:00 | Просмотров: 72

    Производство: СССР, Киргизфильм
    Жанр: Боевик
    Режиссёр: Болотбек Шамшиев
    Актёры: Сюйменкул Чокморов, Советбек Джумадылов, Борис Химичёв, Амина Омурзакова, Алиман Жангорозова, Гунта Виркава, Е. О таком странном сюжете не догадывалась даже Шакира. Омурзаков, А. Темирова, А. Ибраимов, А. Кучеренко

    Описание

    О становлении советской власти в Киргизии, о трудной борьбе с контрабандистами, тайно переправляющими через границу опий. Белая ворона, сказал кто то из толпы, к чему не понятно. Герой фильма Карабалта, объявленный царскими властями разбойником, вместе со своим непокорным родом ушёл за границу. Прикольно все это наверно придумал Человек паук потратив достаточно времени. Обосновавшись на перевале, через который отец контрабанды — жестокий, расчётливый Байзак хотел переправить караван с опием, Карабалта сумел напасть на его след. Человек трудной судьбы, Карабалта становится убеждённым борцом за советскую власть.

    Возраст: 16+ (зрителям, достигшим 16 лет)
    Релиз от: kolman67
    Продолжительность: 01: 34: 14
    Качество видео: DVDRip
    Перевод: Не требуется
    Видео: Xvid, 640x480, ~2497 Kbps
    Аудио: MP3, 2 ch, 128 Kbps, CBR
    Код:

    Общее
    Полное имя : Алые маки Иссык-Куля (1971).avi
    Формат : AVI
    Формат/Информация : Audio Video Interleave
    Профиль формата : OpenDML
    Размер файла : 1, 74 Гбайт
    Продолжительность : 1 ч. 34 м.
    Общий поток : 2638 Кбит/сек
    Программа кодирования : Lavf56.15.102
    Видео
    Идентификатор : 0
    Формат : xvid
    Идентификатор кодека : xvid
    Продолжительность : 1 ч. 34 м.
    Битрейт : 2497 Кбит/сек
    Ширина : 640 пикселей
    Высота : 480 пикселей
    Соотношение сторон : 4:3
    Частота кадров : 29, 970 кадров/сек
    Тип развёртки : Прогрессивная
    Бит/(Пиксели*Кадры) : 0.271
    Размер потока : 1, 64 Гбайт (95%)
    Аудио
    Идентификатор : 1
    Формат : MPEG Audio
    Версия формата : Version 1
    Профиль формата : Layer 3
    Режим : Joint stereo
    Расширение режима : MS Stereo
    Идентификатор кодека : 55
    Идентификатор кодека/Подсказка : MP3
    Продолжительность : 1 ч. 34 м.
    Вид битрейта : Постоянный
    Битрейт : 128 Кбит/сек
    Каналы : 2 канала
    Частота : 44, 1 КГц
    Метод сжатия : С потерями
    Размер потока : 86, 3 Мбайт (5%)
    Выравнивание : Соединение по промежуткам
    Продолжительность промежутка : 26 мс. (0, 78 видеокадр)
    Время предзагрузки промежутка : 26 мс.
    Библиотека кодирования : LAME3.98


    Скриншоты для ознакомления




    Онлайн видео Алые маки Иссык



    Алые маки Иссык-Куля (1971) DVDRip
    загрузка...
    Рейтинг →
     (голосов: 1, оценка 4/5, голосовать можно 1 раз )

    Другие торренты по теме:

  • Алые паруса (1961) DVDRip [H.264] (немецкая версия IceStorm)
  • Алые паруса (1961) DVDRip [H.264] (немецкая версия IceStorm)
  • Алые паруса 2016. Выпускной бал в Санкт-Петербурге (2016.06.25) SATRip
  • Сергей Крапивин, Владислав Крапивин | Алые перья стрел (1984) [DJVU]
  • Scarlett Mysteries. Cursed Child / Алые Тайны. Проклятое дитя (2017) [Ru / Multi] (1.0) Unofficial
  • Алые паруса 2017. Выпускной бал в Санкт-Петербурге (2017.06.23) WEB-DL [H.264 / 1080p-LQ]
  • Алые паруса 2017. Выпускной бал в Санкт-Петербурге (2017.06.23) WEB-DLRip
  • Алые паруса-2017. Пиротехническое шоу (23 / 06 / 2017) WEB-DL [H.264] [MP4|1920x1080]


    • Комментарии (0):

      Информация

      Информация

        Посетители, находящиеся в группе Гости, не могут оставлять комментарии в данной новости.

        ↓ Меню




        ↓ Опрос

        Вы добавили сайт в закладки?
        Да
        Нет


        Top 10 за месяц (Фильмы)