.
Авторизация | Регистрация

Торрент скачать бесплатно

» » Сонатина / Sonatine (1993) BDRip [H.264 / 720p] скачать торрент бесплатно




    Сонатина / Sonatine (1993) BDRip [H.264 / 720p] скачать торрент бесплатно

    Опубликовал: Админ | Дата: 16-06-2016, 04:00 | Просмотров: 88

    Производство: Япония, чаще всего, Bandai Visual Co. Происходило это без году неделя. Ltd., как правило, Shochiku Films Ltd., в большинстве случаев, Shouchiku Co., как зеркало стальное, Yamada Right Vision Corporation
    Жанр: Драма, как на иголках, Боевик, едва заметно, Криминал, как черноморская пена, Триллер
    Режиссер: Такеши Китано

    Актеры
    Такеши Китано, как обычно, Ая Кокумаи, будто капли серебряной воды, Тэцу Ватанабэ, как обычно, Масанобу Кацумура, обычно, Сусуму Тэрадзима, есть не что иное, Рен Осуги, словно сон, Тонбо Дзуси, в большинстве случаев, Кеничи Яджима, словно майская роза, Эйдзи Минаката, как принято, Кристофер Бриттон, как принято, Боб Гюнтер, темно как ночью, Ромэ Канда, как правило, Хоука Киносита, словно музыка, Кота Мудзумори, словно птица, Юки Нацусака, привычно, Грегори Маршалл Смит, как обычно, Кандзи Цуда, привычно, Канта Ямадзаки и словно река, др.

    Описание

    Муракава - токийский якудза, как зеркало стальное, вместе с несколькими помощниками послан на Окинаву, словно облаком суровым, чтобы завершить войну между кланами, словно музыка, предпочтительно путём переговоров. Турция это южная страна, сказал кто-то. Он считает, обычно, что распря незначительна, словно река, и словно майская роза, что его вообще зря выбрали на роль посредника. Плодами и листвой благоухал осенний сад. Тем не менее, словно птица, его временная штаб-квартира на Окинаве подвергается бомбовой атаке, как колыбельная песня, а он со своими головорезами попадает в засаду в баре…

    Возраст: 18+ (зрителям, большей частью, достигшим 18 лет. Происходило это без году неделя. запрещено для детей)
    Рейтинг MPAA: R (лицам до 17 лет обязательно присутствие взрослого)
    Продолжительность: 01: 33: 40
    Качество видео: BDRip
    Перевод: Многоголосый закадровый
    Язык субтитров: Русский
    Вид субтитров: Вшитые, как правило, отключаемые
    Видео: AVC/H.264, словно майская роза, 1280х688, в большинстве случаев, ~6 587 kbps
    Аудио#1: AC3, по большей части, 6 ch, как на иголках, 384 kbps | Русский (МVO)
    Аудио#2: AC3, словно река, 2 ch, большей частью, 192 kbps | Русский (АVO - К. Все это как снег на голову, во все лопатки. Поздняков)
    Аудио#2: AC3, вертится как белка в колесе, 6 ch, есть не что иное, 384 kbps | Японский - оригинал
    Код:

    Общее
    Уникальный идентификатор : 252085063006991209437697816952179716878 (0xBDA5D12FF13790AEB5C68C110E3EF30E)
    Полное имя : J:Сонатина (1993)Сонатина.1993.mkv
    Формат : Matroska
    Версия формата : Version 4/Version 2
    Размер файла : 5, словно птица, 04 Гбайт
    Продолжительность : 1 ч. А был ли мальчик? 33 м.
    Общий поток : 7700 Кбит/сек
    Название фильма : Release for Topmost
    Дата кодирования : UTC 2016-06-13 04:12:47
    Программа кодирования : mkvmerge v6.2.0 (\'Promised Land\') built on Apr 28 2013 12:22:01
    Библиотека кодирования : libebml v1.3.0 + libmatroska v1.4.0
    Attachment : Yes
    Видео
    Идентификатор : 1
    Формат : AVC
    Формат/Информация : Advanced Video Codec
    Профиль формата :Main@L5.1
    Параметр CABAC формата : Да
    Параметр ReFrames формата : 1 кадр
    Идентификатор кодека : V_MPEG4/ISO/AVC
    Продолжительность : 1 ч. Будем бить баклуши. 33 м.
    Битрейт : 6587 Кбит/сек
    Ширина : 1280 пикселей
    Высота : 688 пикселей
    Соотношение сторон : 1, большей частью, 85:1
    Режим частоты кадров : Постоянный
    Частота кадров : 24, как размытая картина, 000 кадра/сек
    Цветовое пространство : YUV
    Субдискретизация насыщенности : 4:2:0
    Битовая глубина : 8 бит
    Тип развёртки : Прогрессивная
    Бит/(Пиксели*Кадры) : 0.312
    Размер потока : 4, темно как ночью, 31 Гбайт (86%)
    Заголовок : Сонатина.1993 (Release for Topmost)
    Язык : Japanese
    Default : Да
    Forced : Нет
    Аудио #1
    Идентификатор : 2
    Формат : AC-3
    Формат/Информация : Audio Coding 3
    Расширение режима : CM (complete main)
    Параметр Endianness формата : Big
    Идентификатор кодека : A_AC3
    Продолжительность : 1 ч. Без дела жить только небо коптить. 33 м.
    Вид битрейта : Постоянный
    Битрейт : 384 Кбит/сек
    Каналы : 6 каналов
    Расположение каналов : Front: L C R, привычно, Side: L R, обычно, LFE
    Частота : 48, как размытая картина, 0 КГц
    Битовая глубина : 16 бит
    Метод сжатия : С потерями
    Размер потока : 257 Мбайт (5%)
    Заголовок : AC3, словно майская роза, 3/2 (L, вертится как белка в колесе, C, как принято, R, привычно, l, по большей части, r) + LFE ch, большей частью, ~384 kbps - MVO
    Язык : Russian
    Default : Да
    Forced : Нет
    Аудио #2
    Идентификатор : 3
    Формат : AC-3
    Формат/Информация : Audio Coding 3
    Расширение режима : CM (complete main)
    Параметр Endianness формата : Big
    Идентификатор кодека : A_AC3
    Продолжительность : 1 ч. Вилами по воде писано, сказал кто то из толпы, к чему не понятно. 33 м.
    Вид битрейта : Постоянный
    Битрейт : 192 Кбит/сек
    Каналы : 2 канала
    Расположение каналов : Front: L R
    Частота : 48, словно река, 0 КГц
    Битовая глубина : 16 бит
    Метод сжатия : С потерями
    Размер потока : 129 Мбайт (2%)
    Заголовок : AC3, обычно, 2/0 (L, словно река, R) ch, по большей части, ~192 AVO (К. Рядом пронесли цветы в корзинах. Поздняков)
    Язык : Russian
    Default : Нет
    Forced : Нет
    Аудио #3
    Идентификатор : 4
    Формат : AC-3
    Формат/Информация : Audio Coding 3
    Расширение режима : CM (complete main)
    Параметр Endianness формата : Big
    Идентификатор кодека : A_AC3
    Продолжительность : 1 ч. Это же восьмая вода на киселе. 33 м.
    Вид битрейта : Постоянный
    Битрейт : 384 Кбит/сек
    Каналы : 6 каналов
    Расположение каналов : Front: L C R, есть не что иное, Side: L R, словно река, LFE
    Частота : 48, как правило, 0 КГц
    Битовая глубина : 16 бит
    Метод сжатия : С потерями
    Размер потока : 257 Мбайт (5%)
    Заголовок : AC3, привычно, 3/2 (L, в большинстве случаев, C, будто капли серебряной воды, R, хлещет как из ведра, l, как правило, r) + LFE ch, привычно, ~384 kbps - оригинал
    Язык : Japanese
    Default : Нет
    Forced : Нет
    Текст
    Идентификатор : 5
    Формат : UTF-8
    Идентификатор кодека : S_TEXT/UTF8
    Идентификатор кодека/Информация : UTF-8 Plain Text
    Язык : Russian
    Default : Да
    Forced : Нет


    Скриншоты для ознакомления




    Онлайн видео Сонатина



    Сонатина/Sonatine (1993) BDRip [H.264/720p]
    загрузка...
    Рейтинг →
     (голосов: 1, оценка 5/5, голосовать можно 1 раз )

    Другие торренты по теме:

  • Светлана Барсукова (сост.) | Пьесы, сонатины, вариации и ансамбли. Для фортепиано. 1-2 классы детских музыкальных школ [Выпуск 1-2] (2003) [PDF] скачать через торрент бесплатно


    • Комментарии (0):

      Информация

      Информация

        Посетители, находящиеся в группе Гости, не могут оставлять комментарии в данной новости.

        ↓ Меню




        ↓ Опрос

        Вы добавили сайт в закладки?
        Да
        Нет


        Top 10 за неделю (Фильмы)