.
Авторизация | Регистрация
Хочешь лучшие торренты? Добавь свой email!
Добавить

Торрент скачать бесплатно

» » Сонатина / Sonatine (1993) BDRip [H.264 / 720p] торрент скачать бесплатно




    Сонатина / Sonatine (1993) BDRip [H.264 / 720p] торрент скачать бесплатно

    Опубликовал: Админ | Дата: 16-06-2016, 04:00 | Просмотров: 88

    Производство: Япония, Bandai Visual Co. Ltd., Shochiku Films Ltd., Shouchiku Co., Yamada Right Vision Corporation
    Жанр: Драма, Боевик, Криминал, Триллер
    Режиссер: Такеши Китано

    Актеры
    Такеши Китано, Ая Кокумаи, Тэцу Ватанабэ, Масанобу Кацумура, Сусуму Тэрадзима, Рен Осуги, Тонбо Дзуси, Кеничи Яджима, Эйдзи Минаката, Кристофер Бриттон, Боб Гюнтер, Ромэ Канда, Хоука Киносита, Кота Мудзумори, Юки Нацусака, Грегори Маршалл Смит, Кандзи Цуда, Канта Ямадзаки и др.

    Описание

    Муракава - токийский якудза, вместе с несколькими помощниками послан на Окинаву, чтобы завершить войну между кланами, предпочтительно путём переговоров. Он считает, что распря незначительна, и что его вообще зря выбрали на роль посредника. Тем не менее, его временная штаб-квартира на Окинаве подвергается бомбовой атаке, а он со своими головорезами попадает в засаду в баре…

    Возраст: 18+ (зрителям, достигшим 18 лет. запрещено для детей)
    Рейтинг MPAA: R (лицам до 17 лет обязательно присутствие взрослого)
    Продолжительность: 01: 33: 40
    Качество видео: BDRip
    Перевод: Многоголосый закадровый
    Язык субтитров: Русский
    Вид субтитров: Вшитые, отключаемые
    Видео: AVC/H.264, 1280х688, ~6 587 kbps
    Аудио#1: AC3, 6 ch, 384 kbps | Русский (МVO)
    Аудио#2: AC3, 2 ch, 192 kbps | Русский (АVO - К. Поздняков)
    Аудио#2: AC3, 6 ch, 384 kbps | Японский - оригинал
    Код:

    Общее
    Уникальный идентификатор : 252085063006991209437697816952179716878 (0xBDA5D12FF13790AEB5C68C110E3EF30E)
    Полное имя : J:Сонатина (1993)Сонатина.1993.mkv
    Формат : Matroska
    Версия формата : Version 4/Version 2
    Размер файла : 5, 04 Гбайт
    Продолжительность : 1 ч. 33 м.
    Общий поток : 7700 Кбит/сек
    Название фильма : Release for Topmost
    Дата кодирования : UTC 2016-06-13 04:12:47
    Программа кодирования : mkvmerge v6.2.0 (\'Promised Land\') built on Apr 28 2013 12:22:01
    Библиотека кодирования : libebml v1.3.0 + libmatroska v1.4.0
    Attachment : Yes
    Видео
    Идентификатор : 1
    Формат : AVC
    Формат/Информация : Advanced Video Codec
    Профиль формата :Main@L5.1
    Параметр CABAC формата : Да
    Параметр ReFrames формата : 1 кадр
    Идентификатор кодека : V_MPEG4/ISO/AVC
    Продолжительность : 1 ч. 33 м.
    Битрейт : 6587 Кбит/сек
    Ширина : 1280 пикселей
    Высота : 688 пикселей
    Соотношение сторон : 1, 85:1
    Режим частоты кадров : Постоянный
    Частота кадров : 24, 000 кадра/сек
    Цветовое пространство : YUV
    Субдискретизация насыщенности : 4:2:0
    Битовая глубина : 8 бит
    Тип развёртки : Прогрессивная
    Бит/(Пиксели*Кадры) : 0.312
    Размер потока : 4, 31 Гбайт (86%)
    Заголовок : Сонатина.1993 (Release for Topmost)
    Язык : Japanese
    Default : Да
    Forced : Нет
    Аудио #1
    Идентификатор : 2
    Формат : AC-3
    Формат/Информация : Audio Coding 3
    Расширение режима : CM (complete main)
    Параметр Endianness формата : Big
    Идентификатор кодека : A_AC3
    Продолжительность : 1 ч. 33 м.
    Вид битрейта : Постоянный
    Битрейт : 384 Кбит/сек
    Каналы : 6 каналов
    Расположение каналов : Front: L C R, Side: L R, LFE
    Частота : 48, 0 КГц
    Битовая глубина : 16 бит
    Метод сжатия : С потерями
    Размер потока : 257 Мбайт (5%)
    Заголовок : AC3, 3/2 (L, C, R, l, r) + LFE ch, ~384 kbps - MVO
    Язык : Russian
    Default : Да
    Forced : Нет
    Аудио #2
    Идентификатор : 3
    Формат : AC-3
    Формат/Информация : Audio Coding 3
    Расширение режима : CM (complete main)
    Параметр Endianness формата : Big
    Идентификатор кодека : A_AC3
    Продолжительность : 1 ч. Вилами по воде писано, сказал кто то из толпы, к чему не понятно. 33 м.
    Вид битрейта : Постоянный
    Битрейт : 192 Кбит/сек
    Каналы : 2 канала
    Расположение каналов : Front: L R
    Частота : 48, 0 КГц
    Битовая глубина : 16 бит
    Метод сжатия : С потерями
    Размер потока : 129 Мбайт (2%)
    Заголовок : AC3, 2/0 (L, R) ch, ~192 AVO (К. Поздняков)
    Язык : Russian
    Default : Нет
    Forced : Нет
    Аудио #3
    Идентификатор : 4
    Формат : AC-3
    Формат/Информация : Audio Coding 3
    Расширение режима : CM (complete main)
    Параметр Endianness формата : Big
    Идентификатор кодека : A_AC3
    Продолжительность : 1 ч. 33 м.
    Вид битрейта : Постоянный
    Битрейт : 384 Кбит/сек
    Каналы : 6 каналов
    Расположение каналов : Front: L C R, Side: L R, LFE
    Частота : 48, 0 КГц
    Битовая глубина : 16 бит
    Метод сжатия : С потерями
    Размер потока : 257 Мбайт (5%)
    Заголовок : AC3, 3/2 (L, C, R, l, r) + LFE ch, ~384 kbps - оригинал
    Язык : Japanese
    Default : Нет
    Forced : Нет
    Текст
    Идентификатор : 5
    Формат : UTF-8
    Идентификатор кодека : S_TEXT/UTF8
    Идентификатор кодека/Информация : UTF-8 Plain Text
    Язык : Russian
    Default : Да
    Forced : Нет


    Скриншоты для ознакомления




    Онлайн видео Сонатина



    Сонатина/Sonatine (1993) BDRip [H.264/720p]
    загрузка...
    Рейтинг →
     (голосов: 1, оценка 5/5, голосовать можно 1 раз )

    Другие торренты по теме:



      Комментарии (0):

      Информация

      Информация

        Посетители, находящиеся в группе Гости, не могут оставлять комментарии в данной новости.

        ↓ Меню




        ↓ Опрос

        Вы добавили сайт в закладки?
        Да
        Нет


        Top 10 за месяц (Фильмы)