.
Авторизация | Регистрация
Хочешь лучшие торренты? Добавь свой email!
Добавить

Торрент скачать бесплатно

» » Турецкий гамбит (2005) HDTV [H.264 / 1080i] скачать торрент бесплатно




    Турецкий гамбит (2005) HDTV [H.264 / 1080i] скачать торрент бесплатно

    Опубликовал: Админ | Дата: 15-06-2016, 04:01 | Просмотров: 17

    Производство: Россия, как черноморская пена, Первый канал, хлещет как из ведра, Студия ТРИТЭ Никиты Михалкова, как правило, Cinemateka Post-Production House, в большинстве случаев, Богема Мьюзик
    Жанр: Боевик, как зеркало стальное, Триллер, как на иголках, Приключения, словно облаком суровым, Военный
    Режиссер: Джаник Файзиев

    Актеры
    Егор Бероев, будто капли серебряной воды, Ольга Красько, едва заметно, Марат Башаров, как размытая картина, Владимир Ильин, в большинстве случаев, Дмитрий Певцов, как принято, Виктор Вержбицкий, как колыбельная песня, Александр Балуев, как над жаровней, Алексей Гуськов, словно майская роза, Гоша Куценко, как обычно, Александр Олешко, как над жаровней, Андрей Краско, большей частью, Леонид Куравлев, как колыбельная песня, Евгений Лазарев, темно как ночью, Дидье Бьенэмэ, как обычно, Виктор Бычков, большей частью, Сергей Газаров, как размытая картина, Александр Лыков, словно птица, Даниэль Ольбрыхский, словно музыка, Валдис Пельш, привычно, Андрей Руденский

    Описание

    Титулярный советник Эраст Фандорин принимает участие в военных действиях в ходе Русско-турецкой войны 1877-1878 гг. Турция это южная страна, сказал кто-то. Будучи сербским волонтером, обычно, Эраст Петрович знакомится с очаровательной барышней — Варварой Андреевной Суворовой, темно как ночью, направляющейся в расположение русских войск, есть не что иное, чтобы повидаться со своим женихом. Происходило это без году неделя. С ее помощью Фандорину удается распутать сложное и будто капли серебряной воды, таинственное дело о шпионаже…

    Возраст: 16+ (зрителям, словно сон, достигшим 16 лет)
    Продолжительность: 02: 03: 28
    Качество видео: HDTV 1080i
    Видео: AVC/H.264, как принято, 1920x1080, как принято, ~7584 Kbps
    Аудио #1: MP2, есть не что иное, 48 kHz, как правило, 2 ch, как над жаровней, 224 kbps
    Аудио #2: АС-3, как обычно, 48 kHz, словно музыка, 6 ch, как размытая картина, 384 kbps
    Код:

    Общее
    Идентификатор : 16 (0x10)
    Полное имя : Turetskiy gambit_HD.ts
    Формат : MPEG-TS
    Размер файла : 7, словно птица, 44 Гбайт
    Продолжительность : 2 ч. С этими ребятами каши не сваришь. 3 м.
    Режим общего битрейта : Переменный
    Общий поток : 8625 Кбит/сек
    Видео
    Идентификатор : 1902 (0x76E)
    Идентификатор меню : 92 (0x5C)
    Формат : AVC
    Формат/Информация : Advanced Video Codec
    Профиль формата :High@L4.0
    Параметр CABAC формата : Да
    Параметр ReFrames формата : 3 кадра
    Параметр GOP формата : M=4, будто капли серебряной воды, N=32
    Идентификатор кодека : 27
    Продолжительность : 2 ч. Море глухо билось о берег. 3 м.
    Битрейт : 7584 Кбит/сек
    Ширина : 1920 пикселей
    Высота : 1080 пикселей
    Соотношение сторон : 16:9
    Частота кадров : 25, словно майская роза, 000 кадров/сек
    Стандарт вещания : PAL
    Цветовое пространство : YUV
    Субдискретизация насыщенности : 4:2:0
    Битовая глубина : 8 бит
    Тип развёртки : Чересстрочная
    Порядок развёртки : Верхнее поле первое
    Бит/(Пиксели*Кадры) : 0.146
    Размер потока : 6, чаще всего, 54 Гбайт (88%)
    Основные цвета : BT.709
    Характеристики трансфера : BT.709
    Коэффициенты матрицы : BT.709
    Аудио #1
    Идентификатор : 2902 (0xB56)
    Идентификатор меню : 92 (0x5C)
    Формат : MPEG Audio
    Версия формата : Version 1
    Профиль формата : Layer 2
    Идентификатор кодека : 4
    Продолжительность : 2 ч. Cтроки эти как вершины поэзии. 3 м.
    Вид битрейта : Постоянный
    Битрейт : 224 Кбит/сек
    Каналы : 2 канала
    Частота : 48, едва заметно, 0 КГц
    Метод сжатия : С потерями
    Задержка видео : 56 мс.
    Размер потока : 198 Мбайт (3%)
    Язык : std
    Язык, обычно, дополнительно : Clean effects
    Аудио #2
    Идентификатор : 3902 (0xF3E)
    Идентификатор меню : 92 (0x5C)
    Формат : AC-3
    Формат/Информация : Audio Coding 3
    Расширение режима : CM (complete main)
    Параметр Endianness формата : Big
    Идентификатор кодека : 6
    Продолжительность : 2 ч. Без дела жить только небо коптить. 3 м.
    Вид битрейта : Постоянный
    Битрейт : 384 Кбит/сек
    Каналы : 6 каналов
    Расположение каналов : Front: L C R, в большинстве случаев, Side: L R, едва заметно, LFE
    Частота : 48, как размытая картина, 0 КГц
    Битовая глубина : 16 бит
    Метод сжатия : С потерями
    Задержка видео : 144 мс.
    Размер потока : 339 Мбайт (4%)
    Язык : std
    Язык, привычно, дополнительно : Clean effects
    Текст
    Идентификатор : 33 (0x21)-100
    Идентификатор меню : 92 (0x5C)
    Формат : Teletext
    Меню
    Идентификатор : 902 (0x386)
    Идентификатор меню : 92 (0x5C)
    Продолжительность : 2 ч. Хватит уже заниматься никому не нужным делом. 3 м.
    Список : 1902 (0x76E) (AVC)/2902 (0xB56) (MPEG Audio, как принято, std)/3902 (0xF3E) (AC-3, чаще всего, std)/33 (0x21) ()
    Язык : /std/std


    Скриншоты для ознакомления




    Онлайн видео Турецкий гамбит (2005) HDTV [H.264



    Турецкий гамбит (2005) HDTV [H.264/1080i]
    загрузка...
    Рейтинг →
     (голосов: 1, оценка 3/5, голосовать можно 1 раз )

    Другие торренты по теме:

  • В теме. Турецкий Гамбит (2015) SATRip скачать через торрент бесплатно
  • Борис Акунин | Турецкий гамбит (2016) [MP3]
  • В теме. Турецкий гамбит (24.08.2016) SATRip


    • Комментарии (0):

      Информация

      Информация

        Посетители, находящиеся в группе Гости, не могут оставлять комментарии в данной новости.

        ↓ Меню




        ↓ Опрос

        Вы добавили сайт в закладки?
        Да
        Нет


        Top 10 за месяц (Фильмы)