.
Авторизация | Регистрация
Хочешь лучшие торренты? Добавь свой email!
Добавить

Торрент скачать бесплатно

» » МосГаз (2012) HDTVRip (серии 1-8 из 8) торрент скачать бесплатно




    МосГаз (2012) HDTVRip (серии 1-8 из 8) торрент скачать бесплатно

    Опубликовал: Админ | Дата: 15-06-2016, 04:01 | Просмотров: 23

    Производство: Россия/Студия Русский проект, Студия Красный квадрат
    Жанр: Детектив, Криминал
    Режиссер: Андрей Малюков

    Актеры
    Андрей Смоляков, Марина Александрова, Максим Матвеев, Юрий Чурсин, Светлана Ходченкова, Агния Кузнецова, Екатерина Климова, Александр Дробитько, Даниэла Стоянович, Анатолий Кузнецов и др...

    Описание

    Создатели фильма рассказывают о поисках первого в истории СССР серийного убийцы в Москве времён хрущевской оттепели.1962 год. Москва. Преступник по кличке Мосгаз, стал первым официально признанным серийным маньяком в Советском Союзе. Его кровавые деяния навсегда вошли в историю криминалистики, а его прозвищем мамы пугали детей.Представляясь работником Мосгаза, маньяк свободно проникал в квартиры людей, выбирал жертву и оценивал благосостояние хозяев квартир. Позже следствие докажет причастность Мосгаза к шести убийствам, в том числе на его совести четыре смерти несовершеннолетних граждан СССР.Он убивал с легкостью, словно играл роль.По приказу Хрущева на поимку серийного убийцы отводилось две недели. Прикольно все это наверно придумал Гарри Поттер потратив достаточно времени. Приказ был выполнен в срок.Что двигало преступником: жажда наживы, несчастная любовь или болезненное стремление убивать?

    Возраст: 16+ (зрителям, достигшим 16 лет)
    Продолжительность: серии 1 и 8 ~01: 25: 00; серии 2-7 ~0: 52: 30
    Качество видео: HDTVRip
    Видео: Xvid, 720x400 (16: 9), ~1322 Kbps
    Аудио: AC3, 2 ch, 192 Kbps, CBR
    Код:

    Общее
    Полное имя : D:Мои фильмыMosGaz_1-8iz8_2012XviD_HDTVRipMosGaz_1_HDTVRip.avi
    Формат : AVI
    Формат/Информация : Audio Video Interleave
    Размер файла : 892 Мбайт
    Продолжительность : 1 ч. 21 м.
    Общий поток : 1523 Кбит/сек
    Программа кодирования : VirtualDubMod 1.5.10.3 | (build 2550/release)
    Библиотека кодирования : VirtualDub build 35491/release
    Видео
    Идентификатор : 0
    Формат : MPEG-4 Visual
    Профиль формата : Advanced Simple@L5
    Параметр BVOP формата : 2
    Параметр QPel формата : Нет
    Параметр GMC формата : Без точки перехода
    Параметр матрицы формата : Default (H.263)
    Идентификатор кодека : XVID
    Идентификатор кодека/Подсказка : XviD
    Продолжительность : 1 ч. 21 м.
    Битрейт : 1322 Кбит/сек
    Ширина : 720 пикселей
    Высота : 400 пикселей
    Соотношение сторон : 16:9
    Частота кадров : 25, 000 кадров/сек
    Цветовое пространство : YUV
    Субдискретизация насыщенности : 4:2:0
    Битовая глубина : 8 бит
    Тип развёртки : Прогрессивная
    Метод сжатия : С потерями
    Бит/(Пиксели*Кадры) : 0.184
    Размер потока : 773 Мбайт (87%)
    Библиотека кодирования : XviD 67
    Аудио
    Идентификатор : 1
    Формат : AC-3
    Формат/Информация : Audio Coding 3
    Расширение режима : CM (complete main)
    Параметр Endianness формата : Big
    Идентификатор кодека : 2000
    Продолжительность : 1 ч. 21 м.
    Вид битрейта : Постоянный
    Битрейт : 192 Кбит/сек
    Каналы : 2 канала
    Расположение каналов : Front: L R
    Частота : 48, 0 КГц
    Частота кадров : 31, 250 кадров/сек (1536 spf)
    Метод сжатия : С потерями
    Размер потока : 112 Мбайт (13%)
    Выравнивание : Соединение по промежуткам
    Продолжительность промежутка : 40 мс. Самое интересное в это истории, что об этом Гарри Поттер ничего не знал. (1, 00 видеокадр)
    Время предзагрузки промежутка : 512 мс.


    Скриншоты для ознакомления




    Онлайн видео МосГаз (2012) HDTVRip (серии 1



    МосГаз (2012) HDTVRip (серии 1-8 из 8)
    загрузка...
    Рейтинг →
     (голосов: 1, оценка 5/5, голосовать можно 1 раз )

    Другие торренты по теме:

  • Мосгаз (2012) HDTVRip [H.264] (сезон 1, серия 1-6 из 8) (обновляемая) скачать через торрент бесплатно
  • Мосгаз (2012) HDTVRip [H.264 / 720p-LQ] (серии 1-8 из 8)


    • Комментарии (0):

      Информация

      Информация

        Посетители, находящиеся в группе Гости, не могут оставлять комментарии в данной новости.

        ↓ Меню




        ↓ Опрос

        Вы добавили сайт в закладки?
        Да
        Нет


        Top 10 за месяц (Фильмы)