.
Авторизация | Регистрация
Хочешь лучшие торренты? Добавь свой email!
Добавить

Торрент скачать бесплатно

» » Всевидящее око / Eye in the Sky (2015) BDRip [H.264 / 1080p] [MVO] торрент скачать бесплатно




    Всевидящее око / Eye in the Sky (2015) BDRip [H.264 / 1080p] [MVO] торрент скачать бесплатно

    Опубликовал: Админ | Дата: 14-06-2016, 04:00 | Просмотров: 66

    Производство: Великобритания, Entertainment One, Raindog Films
    Жанр: Триллер, Драма, Военный
    Режиссер: Гэвин Худ

    Актеры
    Хелен Миррен, Файза Хассан, Аиша Такоу, Армаан Хаггио, Боб Чаппель, Алекс Гафлавент, Аарон Пол, Бабу Сизей, Карл Бьюкс, Кейт Ликориш, Ричард Стефенсон, Габриэлла Пинто

    Описание

    Британский военный офицер Кэтрин Пауэлл проводит дни своей службы в составе секретной команды по управлению беспилотниками. Когда героиня видит, что в зоне поражения находится 9-летня девочка, то понимает, что её новое задание — захват террористической группы в Кении — становится ничем иным, как убийством...

    Рейтинг MPAA: R (лицам до 17 лет обязательно присутствие взрослого)
    Дата мировой премьеры: 11 сентября 2015
    Дата российской премьеры: 30 июня 2016
    Продолжительность: 01: 42: 45
    Качество видео: BDRip
    Перевод: Многоголосый закадровый, любительский (Coldfilm)
    Субтитры: Английские (на африканскую речь) вшитые неотключаемые
    Видео: AVC/H.264, 1920х808, ~9151 Kbps
    Аудио 1: AC3, 2 ch, 192 Kbps, CBR | Русский
    Аудио 2: DTS, 6 ch, 1509 Kbps, CBR | Английский
    Код:

    Общее
    Уникальный идентификатор : 250367458791350957094811854333941424893 (0xBC5B04C2E166993D8AEAE2FF48C8A2FD)
    Полное имя : C:ТоррентыВсевидящее око.2015.BDRip.1080p.mkv
    Формат : Matroska
    Версия формата : Version 4/Version 2
    Размер файла : 7, 79 Гбайт
    Продолжительность : 1 ч. 42 м.
    Общий поток : 10, 8 Мбит/сек
    Дата кодирования : UTC 2016-06-12 16:36:30
    Программа кодирования : mkvmerge v9.2.0 (\'Photograph\') 64bit
    Библиотека кодирования : libebml v1.3.3 + libmatroska v1.4.4
    Видео
    Идентификатор : 1
    Формат : AVC
    Формат/Информация : Advanced Video Codec
    Профиль формата :High@L4.1
    Параметр CABAC формата : Да
    Параметр ReFrames формата : 5 кадров
    Идентификатор кодека : V_MPEG4/ISO/AVC
    Продолжительность : 1 ч. Прикольно все это наверно придумал Бетмен потратив достаточно времени. 42 м.
    Битрейт : 9151 Кбит/сек
    Ширина : 1920 пикселей
    Высота : 808 пикселей
    Соотношение сторон : 2, 40:1
    Режим частоты кадров : Постоянный
    Частота кадров : 23, 976 кадра/сек
    Цветовое пространство : YUV
    Субдискретизация насыщенности : 4:2:0
    Битовая глубина : 8 бит
    Тип развёртки : Прогрессивная
    Бит/(Пиксели*Кадры) : 0.246
    Размер потока : 6, 56 Гбайт (84%)
    Библиотека кодирования : x264 core 148 r2692 64f4e24
    Настройки программы : cabac=1/ref=5/deblock=1:0:0/analyse=0x3:0x133/me=umh/subme=7/psy=1/psy_rd=1.00:0.00/mixed_ref=1/me_range=16/chroma_me=1/trellis=1/8x8dct=1/cqm=0/deadzone=21, 11/fast_pskip=0/chroma_qp_offset=-2/threads=12/lookahead_threads=2/sliced_threads=0/nr=0/decimate=1/interlaced=0/bluray_compat=0/constrained_intra=0/bframes=3/b_pyramid=2/b_adapt=1/b_bias=0/direct=1/weightb=1/open_gop=0/weightp=2/keyint=250/keyint_min=23/scenecut=40/intra_refresh=0/rc_lookahead=40/rc=2pass/mbtree=1/bitrate=9151/ratetol=1.0/qcomp=0.60/qpmin=0/qpmax=69/qpstep=4/cplxblur=20.0/qblur=0.5/ip_ratio=1.40/aq=1:1.00
    Язык : English
    Default : Да
    Forced : Нет
    Аудио #1
    Идентификатор : 2
    Формат : AC-3
    Формат/Информация : Audio Coding 3
    Расширение режима : CM (complete main)
    Параметр Endianness формата : Big
    Идентификатор кодека : A_AC3
    Продолжительность : 1 ч. 42 м.
    Вид битрейта : Постоянный
    Битрейт : 192 Кбит/сек
    Каналы : 2 канала
    Расположение каналов : Front: L R
    Частота : 48, 0 КГц
    Частота кадров : 31, 250 кадров/сек (1536 spf)
    Метод сжатия : С потерями
    Размер потока : 141 Мбайт (2%)
    Заголовок : Coldfilm
    Язык : Russian
    Default : Нет
    Forced : Нет
    Аудио #2
    Идентификатор : 3
    Формат : DTS
    Формат/Информация : Digital Theater Systems
    Режим : 16
    Параметр Endianness формата : Big
    Идентификатор кодека : A_DTS
    Продолжительность : 1 ч. 42 м.
    Вид битрейта : Постоянный
    Битрейт : 1509 Кбит/сек
    Каналы : 6 каналов
    Расположение каналов : Front: L C R, Side: L R, LFE
    Частота : 48, 0 КГц
    Частота кадров : 93, 750 кадра/сек (512 spf)
    Битовая глубина : 24 бит
    Метод сжатия : С потерями
    Размер потока : 1, 08 Гбайт (14%)
    Язык : English
    Default : Нет
    Forced : Нет
    Меню
    00:00:00.000 : en:00:00:00.000
    00:05:23.823 : en:00:05:23.823
    00:10:50.149 : en:00:10:50.149
    00:15:12.787 : en:00:15:12.787
    00:19:07.355 : en:00:19:07.355
    00:25:23.230 : en:00:25:23.230
    00:30:22.320 : en:00:30:22.320
    00:36:55.630 : en:00:36:55.630
    00:41:49.590 : en:00:41:49.590
    00:46:48.556 : en:00:46:48.556
    00:50:25.147 : en:00:50:25.147
    00:55:24.279 : en:00:55:24.279
    00:59:34.905 : en:00:59:34.905
    01:03:25.010 : en:01:03:25.010
    01:10:24.262 : en:01:10:24.262
    01:16:51.148 : en:01:16:51.148
    01:21:32.304 : en:01:21:32.304
    01:26:15.003 : en:01:26:15.003
    01:30:03.398 : en:01:30:03.398
    01:33:42.033 : en:01:33:42.033

    Скриншоты для ознакомления



    Все одноименные релизы в Клубе
    Время раздачи: с 10.00 до 22.00 (до появления первых 3-5 скачавших)

    Всевидящее око/Eye in the Sky (2015) BDRip [H.264/1080p] [MVO]
    загрузка...
    Рейтинг →
     (голосов: 1, оценка 5/5, голосовать можно 1 раз )

    Другие торренты по теме:

  • Всевидящее око / Eye in the Sky (2015) BDRip [H.264 / 720p] [EN]
  • Всевидящее око / Eye in the Sky (2015) BDRip [H.264 / 1080p] [EN]
  • Всевидящее око / Eye in the Sky (2015) BDRip [H.264 / 1080p]
  • Всевидящее око / Eye in the Sky (2015) BDRip [H.264 / 720p]
  • Всевидящее око / Eye in the Sky (2015) BDRip [H.264 / 1080p]
  • Всевидящее око / Eye in the Sky (2015) BDRip [H.264 / 1080p-LQ]


    • Комментарии (0):

      Информация

      Информация

        Посетители, находящиеся в группе Гости, не могут оставлять комментарии в данной новости.

        ↓ Меню




        ↓ Опрос

        Вы добавили сайт в закладки?
        Да
        Нет


        Top 10 за месяц (Фильмы)