.
Авторизация | Регистрация
Хочешь лучшие торренты? Добавь свой email!
Добавить

Торрент скачать бесплатно

» » Мобильник / Cell (2016) WEB-DL [H.264 / 720p-LQ] [EN / EN Sub] торрент скачать бесплатно




    Мобильник / Cell (2016) WEB-DL [H.264 / 720p-LQ] [EN / EN Sub] торрент скачать бесплатно

    Опубликовал: Админ | Дата: 12-06-2016, 04:02 | Просмотров: 1830

    Производство: США, Genre Co., The, Benaroya Pictures, Cargo Entertainment
    Жанр: Ужасы, Фантастика, Триллер
    Режиссер: Тод Кип Уильямс

    Актеры
    Сэмюэл Л. Самое интересное в это истории, что об этом Кравчук ничего не знал. Джексон, Изабель Фурман, Джон Кьюсак, Стейси Кич, Алекс тер Авест, Ллойд Кауфман, Элизабет Купер, Мэнди Кристин Керр, Джошуа Микель, Кларк Сарулло, Элизабет Давидович, Оуэн Тиг, Катрин Дайер, Итан Эндрю Касто, Гриффин Фриман, Эбби Феррелл, Э. Роджер Митчелл, Рей Эрнандес, Майкл Бисли, Вилбур Фицджералд

    Описание

    История художника Клайтона Ридделла, становящегося свидетелем разрушительного действия некоего опасного импульса, источающегося сотовыми телефонами (скорость его распространения невероятно высока) и превращающего попавших под его влияние людей в безумцев. В компании нескольких незараженных героев он отправляется на поиски своей супруги и сына, чтобы выяснить, удалось ли спастись его семье.

    Возраст: 16+ (зрителям, достигшим 16 лет)
    Рейтинг MPAA: R (лицам до 17 лет обязательно присутствие взрослого)
    Премьера (мир): 12 декабря 2015, ...
    Премьера (РФ): 7 июля 2016, Наше Кино

    Продолжительность: 01: 38: 03
    Качество видео: WEB-DL 720p
    Перевод: Отсутствует
    Язык озвучки: Английский
    Язык субтитров: Английский
    Вид субтитров: Вшитые отключаемые
    Видео: AVC, 1280x530 (2.40: 1), 23.976 fps, 3 979 Kbps (0.245 bit/pixel)
    Аудио: AC-3, 48.0 KHz, 6 ch, 384 Kbps, CBR (English)
    Код:

    General
    Unique ID : 174530513516113432644081645626708696995 (0x834D5AAE189D2F66A35333C287FF9FA3)
    Complete name : E:VideoCell.2016.720p.WEB-DL.DD5.1.H.264-PLAYNOW.mkv
    Format : Matroska
    Format version : Version 4/Version 2
    File size : 3.05 GiB
    Duration : 1h 38mn
    Overall bit rate : 4 452 Kbps
    Encoded date : UTC 2016-06-10 04:30:05
    Writing application : mkvmerge v6.7.0 (\'Back to the Ground\') 64bit built on Jan 8 2014 15:10:52
    Writing library : libebml v1.3.0 + libmatroska v1.4.1
    Video
    ID : 1
    Format : AVC
    Format/Info : Advanced Video Codec
    Format profile :Main@L3.1
    Format settings, CABAC : No
    Format settings, ReFrames : 2 frames
    Codec ID : V_MPEG4/ISO/AVC
    Duration : 1h 38mn
    Bit rate : 3 979 Kbps
    Width : 1 280 pixels
    Height : 530 pixels
    Display aspect ratio : 2.40:1
    Frame rate mode : Constant
    Frame rate : 23.976 (24000/1001) fps
    Color space : YUV
    Chroma subsampling : 4:2:0
    Bit depth : 8 bits
    Scan type : Progressive
    Bits/(Pixel*Frame) : 0.245
    Stream size : 2.73 GiB (89%)
    Language : English
    Default : Yes
    Forced : No
    Color range : Limited
    Color primaries : BT.709
    Transfer characteristics : BT.709
    Matrix coefficients : BT.709
    Audio
    ID : 3
    Format : AC-3
    Format/Info : Audio Coding 3
    Mode extension : CM (complete main)
    Format settings, Endianness : Big
    Codec ID : A_AC3
    Duration : 1h 38mn
    Bit rate mode : Constant
    Bit rate : 384 Kbps
    Channel(s) : 6 channels
    Channel positions : Front: L C R, Side: L R, LFE
    Sampling rate : 48.0 KHz
    Frame rate : 31.250 fps (1536 spf)
    Compression mode : Lossy
    Stream size : 269 MiB (9%)
    Language : English
    Default : Yes
    Forced : No
    Text
    ID : 2
    Format : UTF-8
    Codec ID : S_TEXT/UTF8
    Codec ID/Info : UTF-8 Plain Text
    Language : English
    Default : No
    Forced : No
    Menu
    00:00:00.000 : en:1
    00:12:24.000 : en:2
    00:22:43.000 : en:3
    00:34:08.000 : en:4
    00:43:14.000 : en:5
    00:52:47.000 : en:6
    01:03:32.000 : en:7
    01:13:19.000 : en:8
    01:23:58.000 : en:9
    01:33:24.000 : en:10


    Скриншоты для ознакомления




    Онлайн видео Мобильник



    Мобильник/Cell (2016) WEB-DL [H.264/720p-LQ] [EN/EN Sub]
    загрузка...
    Рейтинг →
     (голосов: 1, оценка 3/5, голосовать можно 1 раз )

    Другие торренты по теме:

  • Мобильник / Cell (2016) WEB-DL [H.264 / 720p-LQ]
  • Мобильник / Cell (2016) WEB-DLRip
  • Мобильник / Cell (2016)
  • Мобильник / Cell (2016) WEB-DL [H.264 / 720p-LQ] [AVO]
  • Мобильник / Cell (2016) WEB-DL [720p] ATV
  • Мобильник / Cell (2016) WEB-DL [H.264 / 720p-LQ]
  • Мобильник / Cell (2016) WEB-DLRip
  • Мобильник / Cell (2016) WEB-DLRip


    • Комментарии (0):

      Информация

      Информация

        Посетители, находящиеся в группе Гости, не могут оставлять комментарии в данной новости.

        ↓ Меню




        ↓ Опрос

        Вы добавили сайт в закладки?
        Да
        Нет


        Top 10 за месяц (Фильмы)