.
Авторизация | Регистрация
Хочешь лучшие торренты? Добавь свой email!
Добавить

Торрент скачать бесплатно

» » Люди Икс: Апокалипсис / X-Men: Apocalypse (2016) TC [H.264 / 1080p-LQ] [Line] торрент скачать бесплатно




    Люди Икс: Апокалипсис / X-Men: Apocalypse (2016) TC [H.264 / 1080p-LQ] [Line] торрент скачать бесплатно

    Опубликовал: Админ | Дата: 12-06-2016, 04:02 | Просмотров: 1857

    Производство: США
    Жанр: Фантастика, Боевик, Приключения
    Режиссер: Брайан Сингер

    Актеры
    Джеймс МакЭвой, Майкл Фассбендер, Дженнифер Лоуренс, Николас Холт, Оскар Айзек, Роуз Бирн, Эван Питерс, Джош Хелман, Софи Тернер, Тай Шеридан

    Описание

    События Дней Минувшего Будущего оказали колоссальное влияние на мир, где мутанты и люди борются за свое место под Солнцем. В это нелегкое время Людям Икс предстоит столкнуться со своим самым опасным противником — древним мутантом Апокалипсисом, существом, схватка с которым может стать последней не только для мутантов, но и в принципе для всего человечества. Прикольно все это наверно придумал Папа Римский потратив достаточно времени. В поисках способа победы над неуязвимым и бессмертным монстром Людям Икс предстоит узнать больше о происхождении своего вида. Но Апокалипсис неимоверно силен, и вероятность победы все уменьшается, ведь он твердо убежден, что только сильнейшие имеют право на выживание…

    Дата мировой премьеры: 9 мая 2016
    Дата российской премьеры: 19 мая 2016
    Продолжительность: 2: 23: 58
    Качество видео: TC H.264/1080p-LQ
    Перевод: Дублированный
    Язык субтитров: Китайские
    Вид субтитров: Вшитые, не отключаемые
    Видео: AVC/H.264, 1920х802, ~8864 Kbps
    Аудио 1: AC3, 2 ch, 192 Kbps, CBR - Line - Русский
    Аудио 2: MP3, 2 ch, 192 Kbps, CBR - CamRip - Русский
    Аудио 3: AC3, 6 ch, 384 Kbps, CBR - Оригинал - Английский
    Код:

    General
    Unique ID : 225663572615847465130378913306434340430 (0xA9C53922B4D15914B34CDB2F6F18064E)
    Complete name : /Volumes/E/Люди Икс. Апокалипсис - X-Men. Apocalypse (2016)_Line.mkv
    Format : Matroska
    Format version : Version 4/Version 2
    File size : 8.91 GiB
    Duration : 2h 23mn
    Overall bit rate : 8 864 Kbps
    Movie name : Люди Икс: Апокалипсис by D_I_A_B_L_O
    Encoded date : UTC 2016-06-11 10:27:04
    Writing application : mkvmerge v9.2.0 (\'Photograph\') 64bit
    Writing library : libebml v1.3.3 + libmatroska v1.4.4
    Video
    ID : 1
    Format : AVC
    Format/Info : Advanced Video Codec
    Format profile :High@L4.1
    Format settings, CABAC : Yes
    Format settings, ReFrames : 4 frames
    Codec ID : V_MPEG4/ISO/AVC
    Duration : 2h 23mn
    Bit rate : 8 072 Kbps
    Width : 1 920 pixels
    Height : 792 pixels
    Display aspect ratio : 2.40:1
    Frame rate mode : Constant
    Frame rate : 29.970 (30000/1001) fps
    Color space : YUV
    Chroma subsampling : 4:2:0
    Bit depth : 8 bits
    Scan type : Progressive
    Bits/(Pixel*Frame) : 0.177
    Stream size : 8.14 GiB (91%)
    Writing library : x264 core 130 r2273 b3065e6
    Encoding settings : cabac=1/ref=1/deblock=1:0:0/analyse=0x3:0x113/me=hex/subme=2/psy=1/psy_rd=1.00:0.00/mixed_ref=0/me_range=16/chroma_me=1/trellis=0/8x8dct=1/cqm=0/deadzone=21, 11/fast_pskip=1/chroma_qp_offset=0/threads=6/lookahead_threads=2/sliced_threads=0/nr=0/decimate=1/interlaced=0/bluray_compat=0/constrained_intra=0/bframes=3/b_pyramid=2/b_adapt=1/b_bias=0/direct=1/weightb=1/open_gop=0/weightp=1/keyint=300/keyint_min=30/scenecut=40/intra_refresh=0/rc_lookahead=10/rc=abr/mbtree=1/bitrate=8072/ratetol=1.0/qcomp=0.60/qpmin=0/qpmax=69/qpstep=4/vbv_maxrate=62500/vbv_bufsize=78125/nal_hrd=none/ip_ratio=1.40/aq=1:1.00
    Language : English
    Default : Yes
    Forced : No
    Color range : Limited
    Color primaries : BT.709
    Transfer characteristics : BT.709
    Matrix coefficients : BT.709
    Audio #1
    ID : 2
    Format : AC-3
    Format/Info : Audio Coding 3
    Mode extension : CM (complete main)
    Format settings, Endianness : Big
    Codec ID : A_AC3
    Duration : 2h 23mn
    Bit rate mode : Constant
    Bit rate : 192 Kbps
    Channel(s) : 2 channels
    Channel positions : Front: L R
    Sampling rate : 48.0 KHz
    Frame rate : 31.250 fps (1536 spf)
    Compression mode : Lossy
    Stream size : 198 MiB (2%)
    Title : RUSLine
    Language : Russian
    Default : Yes
    Forced : No
    Audio #2
    ID : 3
    Format : MPEG Audio
    Format version : Version 1
    Format profile : Layer 3
    Mode : Joint stereo
    Mode extension : MS Stereo
    Codec ID : A_MPEG/L3
    Codec ID/Hint : MP3
    Duration : 2h 23mn
    Bit rate mode : Constant
    Bit rate : 192 Kbps
    Channel(s) : 2 channels
    Sampling rate : 44.1 KHz
    Frame rate : 38.281 fps (1152 spf)
    Compression mode : Lossy
    Stream size : 197 MiB (2%)
    Title : RUSCamRip
    Language : Russian
    Default : No
    Forced : No
    Audio #3
    ID : 4
    Format : AC-3
    Format/Info : Audio Coding 3
    Mode extension : CM (complete main)
    Format settings, Endianness : Big
    Codec ID : A_AC3
    Duration : 2h 23mn
    Bit rate mode : Constant
    Bit rate : 384 Kbps
    Channel(s) : 6 channels
    Channel positions : Front: L C R, Side: L R, LFE
    Sampling rate : 48.0 KHz
    Frame rate : 31.250 fps (1536 spf)
    Compression mode : Lossy
    Stream size : 395 MiB (4%)
    Title : Оригинал
    Language : English
    Default : No
    Forced : No


    Скриншоты для ознакомления




    Онлайн видео Люди Икс: Апокалипсис



    Люди Икс: Апокалипсис/X-Men: Apocalypse (2016) TC [H.264/1080p-LQ] [Line]
    загрузка...
    Рейтинг →
     (голосов: 1, оценка 3/5, голосовать можно 1 раз )

    Другие торренты по теме:

  • Люди Икс: Апокалипсис / X-Men: Apocalypse (2016) WEBRip [H.264 / 1080p] [Трейлер] скачать через торрент бесплатно
  • Люди Икс: Апокалипсис / X-Men: Apocalypse (2016) WEBRip [H.264 / 1080p] [Трейлер#2]
  • Люди Икс: Апокалипсис / X-Men: Apocalypse (2016) WEBRip [H.264 / 1080p] [Трейлер#3]
  • Люди Икс: Апокалипсис / X-Men: Apocalypse (2016) CamRip (PROPER)
  • Люди Икс: Апокалипсис / X-Men: Apocalypse (2016) CamRip
  • Люди Икс: Апокалипсис / X-Men: Apocalypse (2016) TS
  • Люди Икс: Апокалипсис / X-Men: Apocalypse (2016) TS
  • Люди Икс: Апокалипсис / X-Men: Apocalypse (2016) CamRip [MP4|624x272] [EN]


    • Комментарии (0):

      Информация

      Информация

        Посетители, находящиеся в группе Гости, не могут оставлять комментарии в данной новости.

        ↓ Меню




        ↓ Опрос

        Вы добавили сайт в закладки?
        Да
        Нет


        Top 10 за месяц (Фильмы)