.
Авторизация | Регистрация
Хочешь лучшие торренты? Добавь свой email!
Добавить

Торрент скачать бесплатно

» » Риццоли и Айлc / Rizzoli & Isles (2016) WEB-DLRip (сезон 7, серии 1 из 13) NewStudio (обновляемая) торрент скачать бесплатно




    Риццоли и Айлc / Rizzoli & Isles (2016) WEB-DLRip (сезон 7, серии 1 из 13) NewStudio (обновляемая) торрент скачать бесплатно

    Опубликовал: Админ | Дата: 12-06-2016, 04:02 | Просмотров: 91

    Производство: США
    Жанр: драма, криминал, детектив
    Режиссер: Марк Абер, Стив Робин, Майкл Кэтлман

    Актеры
    Энджи Хармон, Саша Александр, Джордан Бриджес, Брюс МакГилл, Лоррейн Бракко, Ли Томпсон Янг, Брайан Гудман, Тина Хуанг, Колин Эглсфилд и др.

    Описание

    Главная героиня сериала — Джейн Риццоли, бостонский детектив, которая вместе с патологоанатом Морой Айлс, раскрывает преступления.

    Возраст: 12+ (зрителям, достигшим 12 лет)
    Продолжительность: ~00: 42: 00 серия
    Качество видео: WEB-DLRip
    Перевод: Многоголосый закадровый, профессиональный -NewStudio
    Автор перевода: Булат Карабасов
    Видео: XviD, 720x400 (16: 9), ~1515 Kb/s
    Аудио Rus: MPEG Layer 3, 48, 0 kHz, 2 ch, 128 kb/s — многоголосый закадровый
    Аудио Eng: MPEG Layer 3, 48, 0 kHz, 2 ch, 128 kb/s — оригинал
    Код:

    Общее
    Полное имя : D:Риццоли и Айлc (сезон любимого сериала 7) Rizzoli Isles (2016) WEBDLRip - NewStudioRizzoli..Isles.S07E01.WEBDLRip.Rus.Eng.DV.NewStudio.avi
    Формат : AVI
    Формат/Информация : Audio Video Interleave
    Размер файла : 537 Мбайт
    Продолжительность : 42 м.
    Общий поток : 1785 Кбит/сек
    Название фильма : Rizzoli..Isles.S07E01.WEBDLRip.Rus.Eng.DV.NewStudio/NNM-Club
    Программа кодирования : VirtualDubModRus 1.5.10.2 (build 2542/release)
    Библиотека кодирования : VirtualDubMod build 2542/release
    Видео
    Идентификатор : 0
    Формат : MPEG-4 Visual
    Профиль формата : Advanced Simple@L5
    Параметр BVOP формата : 2
    Параметр QPel формата : Нет
    Параметр GMC формата : Без точки перехода
    Параметр матрицы формата : Default (MPEG)
    Идентификатор кодека : XVID
    Идентификатор кодека/Подсказка : XviD
    Продолжительность : 42 м.
    Битрейт : 1515 Кбит/сек
    Ширина : 720 пикселей
    Высота : 400 пикселей
    Соотношение сторон : 16:9
    Частота кадров : 23, 976 (23976/1000) кадра/сек
    Цветовое пространство : YUV
    Субдискретизация насыщенности : 4:2:0
    Битовая глубина : 8 бит
    Тип развёртки : Прогрессивная
    Метод сжатия : С потерями
    Бит/(Пиксели*Кадры) : 0.219
    Размер потока : 456 Мбайт (85%)
    Библиотека кодирования : XviD 73
    Аудио #1
    Идентификатор : 1
    Формат : MPEG Audio
    Версия формата : Version 1
    Профиль формата : Layer 3
    Режим : Joint stereo
    Расширение режима : MS Stereo
    Идентификатор кодека : 55
    Идентификатор кодека/Подсказка : MP3
    Продолжительность : 42 м.
    Вид битрейта : Постоянный
    Битрейт : 128 Кбит/сек
    Каналы : 2 канала
    Частота : 48, 0 КГц
    Метод сжатия : С потерями
    Размер потока : 38, 5 Мбайт (7%)
    Выравнивание : Соединение по промежуткам
    Продолжительность промежутка : 42 мс. (1, 00 видеокадр)
    Время предзагрузки промежутка : 504 мс.
    Аудио #2
    Идентификатор : 2
    Формат : MPEG Audio
    Версия формата : Version 1
    Профиль формата : Layer 3
    Режим : Joint stereo
    Расширение режима : MS Stereo
    Идентификатор кодека : 55
    Идентификатор кодека/Подсказка : MP3
    Продолжительность : 42 м.
    Вид битрейта : Постоянный
    Битрейт : 128 Кбит/сек
    Каналы : 2 канала
    Частота : 48, 0 КГц
    Метод сжатия : С потерями
    Размер потока : 38, 5 Мбайт (7%)
    Выравнивание : Соединение по промежуткам
    Продолжительность промежутка : 42 мс. (1, 00 видеокадр)
    Время предзагрузки промежутка : 504 мс.
    Библиотека кодирования : LAME3.99.5


    Скриншоты для ознакомления




    Онлайн видео Риццоли и Айлc



    Риццоли и Айлc/Rizzoli & Isles (2016) WEB-DLRip (сезон 7, серии 1 из 13) NewStudio (обновляемая)
    загрузка...
    Рейтинг →
     (голосов: 1, оценка 5/5, голосовать можно 1 раз )

    Другие торренты по теме:

  • Риццоли и Айлc / Rizzoli & Isles (2014) WEB-DLRip (Сезон 5 / Серии 1-13 из 18 ()) NewStudio (обновляемая) скачать через торрент бесплатно
  • Риццоли и Айлc / Rizzoli & Isles (2015) WEB-DLRip (сезон 6, серии 1 из 18) NewStudio (обновляемая) скачать через торрент бесплатно
  • Риццоли и Айлc / Rizzoli & Isles (2016) WEB-DL [H.264 / 1080p-LQ] (сезон 7, серии 1-5 из 13) NewStudio (обновляемая)


    • Комментарии (0):

      Информация

      Информация

        Посетители, находящиеся в группе Гости, не могут оставлять комментарии в данной новости.

        ↓ Меню




        ↓ Опрос

        Вы добавили сайт в закладки?
        Да
        Нет


        Top 10 за месяц (Фильмы)