.
Авторизация | Регистрация
Хочешь лучшие торренты? Добавь свой email!
Добавить

Торрент скачать бесплатно

» » По волчьим законам / Animal Kingdom (2016) WEB-DLRip [H.264] (сезон 1, серии 1 из 10) NewStudio (обновляемая) торрент скачать бесплатно




    По волчьим законам / Animal Kingdom (2016) WEB-DLRip [H.264] (сезон 1, серии 1 из 10) NewStudio (обновляемая) торрент скачать бесплатно

    Опубликовал: Админ | Дата: 11-06-2016, 04:00 | Просмотров: 73

    Производство: США
    Жанр: драма, криминал
    Режиссер: Джон Уэллс

    Актеры
    Эллен Баркин, Девон Сава, Скотт Спидман, Бен Робсон, Даниэлла Алонсо, Шон Хэтоси, Райан Дорси, Анна Белкнап, Джейк Вири, Карен Малина Уайт и др.

    Описание

    На создание сериала авторов вдохновил одноимённый австралийский фильм Дэвида Мишо 2010 года. Это история о том, как 17-летний Джошуа Коди после смерти матери переезжает к своей родне в пляжный городок в Южной Калифорнии. Глава семьи Джанин Коди руководит семейным делом. Главный её помощник — старший из братьев Коди по имени Поуп. Остальные сыновья тоже помогают матери по мере сил. Вскоре Джошуа понимает, что фамильный бизнес связан с криминалом и что теперь он волей-неволей сделался частью этого нового для него смертельно опасного мира.

    Дата мировой премьеры: 14 июня 2016
    Релиз от: K.E.N(NNM-CLUB)
    Продолжительность: ~00: 55: 00 серия
    Качество видео: WEB-DLRip
    Перевод: Многоголосый закадровый, профессиональный -NewStudio
    Автор перевода: Алексей Матвеев
    Видео: AVC, 1024x576 (16: 9), 23.976 fps, 887 Kbps
    Аудио: AC-3, 48.0 KHz, 6 ch, 384 Kbps, CBR
    Код:
    Формат : Matroska
    Версия формата : Version 2
    Размер файла : 500 Мбайт
    Продолжительность : 54 м.
    Общий поток : 1274 Кбит/сек
    Дата кодирования : UTC 2016-06-10 21:16:58
    Программа кодирования : mkvmerge v5.3.0 (\'I could have danced\') built on Feb 9 2012 10:38:07
    Библиотека кодирования : libebml v1.2.3 + libmatroska v1.3.0
    Attachment : Yes
    Видео
    Идентификатор : 1
    Формат : AVC
    Формат/Информация : Advanced Video Codec
    Профиль формата :High@L4.1
    Параметр CABAC формата : Да
    Параметр ReFrames формата : 8 кадров
    Идентификатор кодека : V_MPEG4/ISO/AVC
    Продолжительность : 54 м.
    Битрейт : 887 Кбит/сек
    Ширина : 1024 пикселя
    Высота : 576 пикселей
    Соотношение сторон : 16:9
    Режим частоты кадров : Постоянный
    Частота кадров : 23, 976 кадра/сек
    Цветовое пространство : YUV
    Субдискретизация насыщенности : 4:2:0
    Битовая глубина : 8 бит
    Тип развёртки : Прогрессивная
    Бит/(Пиксели*Кадры) : 0.063
    Размер потока : 340 Мбайт (68%)
    Библиотека кодирования : x264 core 146 r2538 121396c
    Настройки программы : cabac=1/ref=8/deblock=1:-2:-2/analyse=0x3:0x133/me=umh/subme=9/psy=1/psy_rd=1.00:0.00/mixed_ref=1/me_range=24/chroma_me=1/trellis=2/8x8dct=1/cqm=0/deadzone=21, 11/fast_pskip=0/chroma_qp_offset=-2/threads=2/lookahead_threads=2/sliced_threads=0/nr=0/decimate=0/interlaced=0/bluray_compat=0/constrained_intra=0/bframes=6/b_pyramid=2/b_adapt=2/b_bias=0/direct=3/weightb=1/open_gop=0/weightp=2/keyint=240/keyint_min=23/scenecut=40/intra_refresh=0/rc=2pass/mbtree=0/bitrate=887/ratetol=1.0/qcomp=0.60/qpmin=0/qpmax=69/qpstep=4/cplxblur=20.0/qblur=0.5/ip_ratio=1.40/pb_ratio=1.30/aq=1:0.70
    Default : Да
    Forced : Нет
    Аудио
    Идентификатор : 2
    Формат : AC-3
    Формат/Информация : Audio Coding 3
    Расширение режима : CM (complete main)
    Параметр Endianness формата : Big
    Идентификатор кодека : A_AC3
    Продолжительность : 54 м.
    Вид битрейта : Постоянный
    Битрейт : 384 Кбит/сек
    Каналы : 6 каналов
    Расположение каналов : Front: L C R, Side: L R, LFE
    Частота : 48, 0 КГц
    Битовая глубина : 16 бит
    Метод сжатия : С потерями
    Размер потока : 151 Мбайт (30%)
    Default : Да
    Forced : Нет


    Скриншоты для ознакомления




    Онлайн видео По волчьим законам



    По волчьим законам/Animal Kingdom (2016) WEB-DLRip [H.264] (сезон 1, серии 1 из 10) NewStudio (обновляемая)
    загрузка...
    Рейтинг →
     (голосов: 1, оценка 5/5, голосовать можно 1 раз )

    Другие торренты по теме:

  • По волчьим законам / Animal Kingdom (2009) BDRip [720p] скачать через торрент бесплатно
  • По волчьим законам / Animal Kingdom (2009) BDRip [H.264 / 1080p]
  • По волчьим законам / Animal Kingdom (2016) WEB-DLRip (сезон 1, серии 1 из 10) NewStudio (обновляемая)
  • По волчьим законам / Animal Kingdom (2016) WEB-DL [H.264 / 1080p-LQ] (сезон 1, серии 1 из 10) NewStudio (обновляемая)
  • По волчьим законам / Animal Kingdom (2016) WEB-DLRip [H.264 / 720p] (сезон 1, серии 1 из 10) LostFilm (обновляемая)
  • По волчьим законам / Animal Kingdom (2016) WEB-DLRip (сезон 1, серии 1 из 10) LostFilm (обновляемая)
  • По волчьим законам / Animal Kingdom (2016) WEB-DLRip [H.264 / 1080p-LQ] (сезон 1, серии 1 из 10) LostFilm (обновляемая)
  • По волчьим законам / Animal Kingdom (2009) BDRemux [H.264 / 1080p]


    • Комментарии (0):

      Информация

      Информация

        Посетители, находящиеся в группе Гости, не могут оставлять комментарии в данной новости.

        ↓ Меню




        ↓ Опрос

        Вы добавили сайт в закладки?
        Да
        Нет


        Top 10 за месяц (Фильмы)