.
Авторизация | Регистрация
Хочешь лучшие торренты? Добавь свой email!
Добавить

Торрент скачать бесплатно

» » Молл Флэндерс / Moll Flanders (1996) HDTV [H.264] торрент скачать бесплатно




    Молл Флэндерс / Moll Flanders (1996) HDTV [H.264] торрент скачать бесплатно

    Опубликовал: Админ | Дата: 9-06-2016, 04:00 | Просмотров: 106

    Замечательный рассказ о непоколебимости духа одной женщины

    Производство: США, Metro-Goldwyn-Mayer (MGM)
    Жанр: Мелодрама, драма, экранизация
    Режиссер: Пен Деншэм

    Актеры
    Робин Райт, Морган Фримен, Стокард Чэннинг, Джон Линч, Бренда Фрикер, Джеральдин Джеймс, Эшлинг Коркоран, Джим Шеридан, Джереми Бретт, Бритта Смит, Кэти Мерфи, Эмма МакАйвор, Мария Дойл Кеннеди, Гер Райан, Гарри Тауб, Райна О’Грейди, Киран Хёрли, Пол Хикки, Джина Моксли и др.

    Описание

    Романтическая, трогательная мелодрама по мотивам романа Дэниэла Дефо.
    Молл Флэндерс была убийцей, потаскухой и воровкой, но история её удивительной жизни, описанная в воспоминаниях и прочитанная старым другом – её дочери от единственного мужчины, которого она любила за всю свою жизнь, никого не оставит равнодушным. Юная Флора узнает печальную историю своей матери Молл Флэндерс от ее старого друга Хиббла.

    Возраст: 16+ (зрителям, достигшим 16 лет)
    Рейтинг MPAA: PG-13 (детям до 13 лет просмотр нежелателен)
    Продолжительность: 02: 02: 23
    Качество видео: HDTV
    Перевод: Многоголосый закадровый, Двухголосый закадровый
    Язык субтитров: Русский, английский
    Вид субтитров: Вшитые, отключаемые
    Видео: AVC/H.264, 960х408, ~1 941 kbps
    Аудио#1: AC3, 6 ch, 384 kbps | Русский (MVO)
    Аудио#2: AC3, 2 ch, 192 kbps | Русский (DVO НТВ+)
    Аудио#3: AC3, 2 ch, 384 kbps | Английский - оригинал
    Код:

    Общее
    Уникальный идентификатор : 241344880320633204608231691216058984255 (0xB591554C29BE87469C8D72BB04C6273F)
    Полное имя : E:Морган ФрименМолл ФлэндерсМолл Флэндерс.1996.mkv
    Формат : Matroska
    Версия формата : Version 2
    Размер файла : 2, 53 Гбайт
    Продолжительность : 2 ч. 2 м.
    Общий поток : 2960 Кбит/сек
    Название фильма : Release for Topmost
    Дата кодирования : UTC 2016-06-06 11:23:47
    Программа кодирования : mkvmerge v5.7.0 (\'The Whirlwind\') built on Jul 29 2012 15:12:35
    Библиотека кодирования : libebml v1.2.3 + libmatroska v1.3.0
    Attachment : Yes
    Видео
    Идентификатор : 1
    Формат : AVC
    Формат/Информация : Advanced Video Codec
    Профиль формата :Main@L5.1
    Параметр CABAC формата : Да
    Параметр ReFrames формата : 1 кадр
    Режим смешивания : Header stripping
    Идентификатор кодека : V_MPEG4/ISO/AVC
    Продолжительность : 2 ч. 2 м.
    Битрейт : 1941 Кбит/сек
    Ширина : 960 пикселей
    Высота : 408 пикселей
    Соотношение сторон : 2, 35:1
    Режим частоты кадров : Постоянный
    Частота кадров : 29, 970 кадров/сек
    Цветовое пространство : YUV
    Субдискретизация насыщенности : 4:2:0
    Битовая глубина : 8 бит
    Тип развёртки : Прогрессивная
    Бит/(Пиксели*Кадры) : 0.165
    Размер потока : 1, 66 Гбайт (66%)
    Заголовок : Молл Флэндерс.1996 (Release for Topmost)
    Default : Да
    Forced : Нет
    Аудио #1
    Идентификатор : 2
    Формат : AC-3
    Формат/Информация : Audio Coding 3
    Расширение режима : CM (complete main)
    Параметр Endianness формата : Big
    Режим смешивания : Header stripping
    Идентификатор кодека : A_AC3
    Продолжительность : 2 ч. 2 м.
    Вид битрейта : Постоянный
    Битрейт : 384 Кбит/сек
    Каналы : 6 каналов
    Расположение каналов : Front: L C R, Side: L R, LFE
    Частота : 48, 0 КГц
    Битовая глубина : 16 бит
    Метод сжатия : С потерями
    Размер потока : 337 Мбайт (13%)
    Заголовок : AC3, 6 ch, 384 kbps - MVO
    Язык : Russian
    Default : Да
    Forced : Нет
    Аудио #2
    Идентификатор : 3
    Формат : AC-3
    Формат/Информация : Audio Coding 3
    Расширение режима : CM (complete main)
    Параметр Endianness формата : Big
    Режим смешивания : Header stripping
    Идентификатор кодека : A_AC3
    Продолжительность : 2 ч. 2 м.
    Вид битрейта : Постоянный
    Битрейт : 192 Кбит/сек
    Каналы : 2 канала
    Расположение каналов : Front: L R
    Частота : 48, 0 КГц
    Битовая глубина : 16 бит
    Метод сжатия : С потерями
    Размер потока : 168 Мбайт (6%)
    Заголовок : AC3, 6 ch, 384 kbps - DVO HTB+
    Язык : Russian
    Default : Нет
    Forced : Нет
    Аудио #3
    Идентификатор : 4
    Формат : AC-3
    Формат/Информация : Audio Coding 3
    Расширение режима : CM (complete main)
    Параметр Endianness формата : Big
    Режим смешивания : Header stripping
    Идентификатор кодека : A_AC3
    Продолжительность : 2 ч. 2 м.
    Вид битрейта : Постоянный
    Битрейт : 384 Кбит/сек
    Каналы : 2 канала
    Расположение каналов : Front: L R
    Частота : 48, 0 КГц
    Битовая глубина : 16 бит
    Метод сжатия : С потерями
    Размер потока : 337 Мбайт (13%)
    Заголовок : AC3, 2 ch, 384 kbps - оригинал
    Язык : English
    Default : Нет
    Forced : Нет
    Текст #1
    Идентификатор : 5
    Формат : UTF-8
    Идентификатор кодека : S_TEXT/UTF8
    Идентификатор кодека/Информация : UTF-8 Plain Text
    Язык : Russian
    Default : Нет
    Forced : Нет
    Текст #2
    Идентификатор : 6
    Формат : UTF-8
    Идентификатор кодека : S_TEXT/UTF8
    Идентификатор кодека/Информация : UTF-8 Plain Text
    Заголовок : SDH
    Язык : English
    Default : Нет
    Forced : Нет


    Скриншоты для ознакомления




    Онлайн видео Молл Флэндерс



    Молл Флэндерс/Moll Flanders (1996) HDTV [H.264]
    загрузка...
    Рейтинг →
     (голосов: 1, оценка 4/5, голосовать можно 1 раз )

    Другие торренты по теме:



      Комментарии (0):

      Информация

      Информация

        Посетители, находящиеся в группе Гости, не могут оставлять комментарии в данной новости.

        ↓ Меню




        ↓ Опрос

        Вы добавили сайт в закладки?
        Да
        Нет


        Top 10 за месяц (Фильмы)