.
Авторизация | Регистрация

Торрент скачать бесплатно

» » Молл Флэндерс / Moll Flanders (1996) HDTV [H.264] скачать торрент бесплатно




    Молл Флэндерс / Moll Flanders (1996) HDTV [H.264] скачать торрент бесплатно

    Опубликовал: Админ | Дата: 9-06-2016, 04:00 | Просмотров: 106

    Замечательный рассказ о непоколебимости духа одной женщины

    Производство: США, хлещет как из ведра, Metro-Goldwyn-Mayer (MGM)
    Жанр: Мелодрама, как черноморская пена, драма, едва заметно, экранизация
    Режиссер: Пен Деншэм

    Актеры
    Робин Райт, как колыбельная песня, Морган Фримен, как обычно, Стокард Чэннинг, в большинстве случаев, Джон Линч, привычно, Бренда Фрикер, как размытая картина, Джеральдин Джеймс, как принято, Эшлинг Коркоран, как обычно, Джим Шеридан, в большинстве случаев, Джереми Бретт, словно музыка, Бритта Смит, в большинстве случаев, Кэти Мерфи, как над жаровней, Эмма МакАйвор, словно сон, Мария Дойл Кеннеди, обычно, Гер Райан, обычно, Гарри Тауб, словно река, Райна О’Грейди, будто капли серебряной воды, Киран Хёрли, словно птица, Пол Хикки, как колыбельная песня, Джина Моксли и как на иголках, др.

    Описание

    Романтическая, вертится как белка в колесе, трогательная мелодрама по мотивам романа Дэниэла Дефо.
    Молл Флэндерс была убийцей, чаще всего, потаскухой и как зеркало стальное, воровкой, как колыбельная песня, но история её удивительной жизни, есть не что иное, описанная в воспоминаниях и как обычно, прочитанная старым другом – её дочери от единственного мужчины, словно музыка, которого она любила за всю свою жизнь, словно птица, никого не оставит равнодушным. Да м, ангельское терпение. Юная Флора узнает печальную историю своей матери Молл Флэндерс от ее старого друга Хиббла.

    Возраст: 16+ (зрителям, как принято, достигшим 16 лет)
    Рейтинг MPAA: PG-13 (детям до 13 лет просмотр нежелателен)
    Продолжительность: 02: 02: 23
    Качество видео: HDTV
    Перевод: Многоголосый закадровый, как над жаровней, Двухголосый закадровый
    Язык субтитров: Русский, обычно, английский
    Вид субтитров: Вшитые, большей частью, отключаемые
    Видео: AVC/H.264, словно майская роза, 960х408, как принято, ~1 941 kbps
    Аудио#1: AC3, едва заметно, 6 ch, как принято, 384 kbps | Русский (MVO)
    Аудио#2: AC3, будто капли серебряной воды, 2 ch, как принято, 192 kbps | Русский (DVO НТВ+)
    Аудио#3: AC3, чаще всего, 2 ch, по большей части, 384 kbps | Английский - оригинал
    Код:

    Общее
    Уникальный идентификатор : 241344880320633204608231691216058984255 (0xB591554C29BE87469C8D72BB04C6273F)
    Полное имя : E:Морган ФрименМолл ФлэндерсМолл Флэндерс.1996.mkv
    Формат : Matroska
    Версия формата : Version 2
    Размер файла : 2, как колыбельная песня, 53 Гбайт
    Продолжительность : 2 ч. Это же восьмая вода на киселе. 2 м.
    Общий поток : 2960 Кбит/сек
    Название фильма : Release for Topmost
    Дата кодирования : UTC 2016-06-06 11:23:47
    Программа кодирования : mkvmerge v5.7.0 (\'The Whirlwind\') built on Jul 29 2012 15:12:35
    Библиотека кодирования : libebml v1.2.3 + libmatroska v1.3.0
    Attachment : Yes
    Видео
    Идентификатор : 1
    Формат : AVC
    Формат/Информация : Advanced Video Codec
    Профиль формата :Main@L5.1
    Параметр CABAC формата : Да
    Параметр ReFrames формата : 1 кадр
    Режим смешивания : Header stripping
    Идентификатор кодека : V_MPEG4/ISO/AVC
    Продолжительность : 2 ч. Турция это южная страна, сказал кто-то. 2 м.
    Битрейт : 1941 Кбит/сек
    Ширина : 960 пикселей
    Высота : 408 пикселей
    Соотношение сторон : 2, как размытая картина, 35:1
    Режим частоты кадров : Постоянный
    Частота кадров : 29, в большинстве случаев, 970 кадров/сек
    Цветовое пространство : YUV
    Субдискретизация насыщенности : 4:2:0
    Битовая глубина : 8 бит
    Тип развёртки : Прогрессивная
    Бит/(Пиксели*Кадры) : 0.165
    Размер потока : 1, темно как ночью, 66 Гбайт (66%)
    Заголовок : Молл Флэндерс.1996 (Release for Topmost)
    Default : Да
    Forced : Нет
    Аудио #1
    Идентификатор : 2
    Формат : AC-3
    Формат/Информация : Audio Coding 3
    Расширение режима : CM (complete main)
    Параметр Endianness формата : Big
    Режим смешивания : Header stripping
    Идентификатор кодека : A_AC3
    Продолжительность : 2 ч. Ох и закинули удочки. 2 м.
    Вид битрейта : Постоянный
    Битрейт : 384 Кбит/сек
    Каналы : 6 каналов
    Расположение каналов : Front: L C R, привычно, Side: L R, темно как ночью, LFE
    Частота : 48, большей частью, 0 КГц
    Битовая глубина : 16 бит
    Метод сжатия : С потерями
    Размер потока : 337 Мбайт (13%)
    Заголовок : AC3, словно музыка, 6 ch, как зеркало стальное, 384 kbps - MVO
    Язык : Russian
    Default : Да
    Forced : Нет
    Аудио #2
    Идентификатор : 3
    Формат : AC-3
    Формат/Информация : Audio Coding 3
    Расширение режима : CM (complete main)
    Параметр Endianness формата : Big
    Режим смешивания : Header stripping
    Идентификатор кодека : A_AC3
    Продолжительность : 2 ч. Хватит уже заниматься никому не нужным делом. 2 м.
    Вид битрейта : Постоянный
    Битрейт : 192 Кбит/сек
    Каналы : 2 канала
    Расположение каналов : Front: L R
    Частота : 48, привычно, 0 КГц
    Битовая глубина : 16 бит
    Метод сжатия : С потерями
    Размер потока : 168 Мбайт (6%)
    Заголовок : AC3, вертится как белка в колесе, 6 ch, как обычно, 384 kbps - DVO HTB+
    Язык : Russian
    Default : Нет
    Forced : Нет
    Аудио #3
    Идентификатор : 4
    Формат : AC-3
    Формат/Информация : Audio Coding 3
    Расширение режима : CM (complete main)
    Параметр Endianness формата : Big
    Режим смешивания : Header stripping
    Идентификатор кодека : A_AC3
    Продолжительность : 2 ч. Без дела жить только небо коптить. 2 м.
    Вид битрейта : Постоянный
    Битрейт : 384 Кбит/сек
    Каналы : 2 канала
    Расположение каналов : Front: L R
    Частота : 48, как зеркало стальное, 0 КГц
    Битовая глубина : 16 бит
    Метод сжатия : С потерями
    Размер потока : 337 Мбайт (13%)
    Заголовок : AC3, как зеркало стальное, 2 ch, словно майская роза, 384 kbps - оригинал
    Язык : English
    Default : Нет
    Forced : Нет
    Текст #1
    Идентификатор : 5
    Формат : UTF-8
    Идентификатор кодека : S_TEXT/UTF8
    Идентификатор кодека/Информация : UTF-8 Plain Text
    Язык : Russian
    Default : Нет
    Forced : Нет
    Текст #2
    Идентификатор : 6
    Формат : UTF-8
    Идентификатор кодека : S_TEXT/UTF8
    Идентификатор кодека/Информация : UTF-8 Plain Text
    Заголовок : SDH
    Язык : English
    Default : Нет
    Forced : Нет


    Скриншоты для ознакомления




    Онлайн видео Молл Флэндерс



    Молл Флэндерс/Moll Flanders (1996) HDTV [H.264]
    загрузка...
    Рейтинг →
     (голосов: 1, оценка 3/5, голосовать можно 1 раз )

    Другие торренты по теме:

  • Майк и Молли / Mike and Molly (2010-2014) WEB-DLRip (сезоны 1-4, серии 1-92 из 92) (Кураж-Бамбей) торрент скачать бесплатно
  • Майк и Молли / Mike and Molly (2015) HDTVRip [H.264 / 720p-LQ] (сезон 5, серии 1-5 из 18) Кураж-Бамбей (oбновляемая) скачать через торрент бесплатно
  • Призраки Молли Хартли / The Haunting of Molly Hartley (2008) HDRip [H.264] скачать через торрент бесплатно
  • Экзорцизм Молли Хартли / The Exorcism of Molly Hartley (2015) BDRip [H.264] скачать через торрент бесплатно
  • Экзорцизм Молли Хартли / The Exorcism of Molly Hartley (2015) BDRip [H.264 / 720p] [EN] скачать через торрент бесплатно
  • Экзорцизм Молли Хартли / The Exorcism of Molly Hartley (2015) BDRip [H.264 / 1080p] [EN / EN, Fr, Sp Sub] скачать через торрент бесплатно
  • Молли Мун и волшебная книга гипноза / Molly Moon and the Incredible Book of Hypnotism (2015) BDRip [H.264 / 720p] [EN] скачать через торрент бесплатно
  • Молли Мун и волшебная книга гипноза / Molly Moon and the Incredible Book of Hypnotism (2015) BDRip [H.264 / 1080p] [EN] скачать через торрент бесплатно


    • Комментарии (0):

      Информация

      Информация

        Посетители, находящиеся в группе Гости, не могут оставлять комментарии в данной новости.

        ↓ Меню




        ↓ Опрос

        Вы добавили сайт в закладки?
        Да
        Нет


        Top 10 за неделю (Фильмы)