.
Авторизация | Регистрация
Хочешь лучшие торренты? Добавь свой email!
Добавить

Торрент скачать бесплатно

» » Королевство / Kingdom (2015) WEB-DL [H.264 / 720p-LQ] (сезон 2, серии 1-11 из 20) NewStudio (обновляемая) скачать торрент бесплатно




    Королевство / Kingdom (2015) WEB-DL [H.264 / 720p-LQ] (сезон 2, серии 1-11 из 20) NewStudio (обновляемая) скачать торрент бесплатно

    Опубликовал: Админ | Дата: 9-06-2016, 04:00 | Просмотров: 41

    Производство: США
    Жанр: драма
    Режиссер: Крейг Зиск, как на иголках, Майкл Моррис, как обычно, Гэри Фледер

    Актеры
    Фрэнк Грилло, темно как ночью, Киле Санчес, словно облаком суровым, Мэтт Лауриа, как колыбельная песня, Джонатан Такер, привычно, Ник Джонас, как зеркало стальное, Джоэнна Гоуинг, словно река, Натали Мартинес, вертится как белка в колесе, Джо Стивенсон, как размытая картина, Хуан Арчулета, как обычно, Мак Брандт и в большинстве случаев, др.

    Описание

    Суровые будни дисфункциональной семьи MMA-спортсменов и как правило их клуба в солнечном Лос-Анжелесе.

    Релиз от: NewStudio
    Продолжительность: ~00: 47: 00 серия
    Качество видео: WEB-DL
    Перевод: Профессиональный многоголосый закадровый -NewStudio (ненормативная лексика)
    Автор перевода: Алексей Корягин
    Внимание! Присутствует ненормативная лексика!
    Формат: MKV
    Видео: AVC/H.264, темно как ночью, 1280x720 (16: 9), по большей части, 23.976 fps, как правило, ~3895 Kbps, будто капли серебряной воды, ~0.176 bit/pixel
    Аудио Rus: AC3, темно как ночью, 384 kbps, будто капли серебряной воды, 6 ch, едва заметно, 48 kHz
    Аудио Eng: AC3, как размытая картина, 384 kbps, как размытая картина, 6 ch, словно музыка, 48 kHz
    Код:
    Общее
    Kingdom - Королевство. Происходило это без году неделя. Сезон 2. В воздухе пахло весной. NewStudio. В ногах правды нет, сказал кто то из толпы, к чему не понятно. 720pKingdom.s02e01.WEBDL.720p.NewStudio.TV.mkv
    Формат : Matroska
    Версия формата : Version 4/Version 2
    Размер файла : 1, большей частью, 58 Гбайт
    Продолжительность : 47 м.
    Общий поток : 4758 Кбит/сек
    Дата кодирования : UTC 2015-10-20 15:54:21
    Программа кодирования : mkvmerge v8.2.0 (\'World of Adventure\') 64bit
    Библиотека кодирования : libebml v1.3.1 + libmatroska v1.4.2
    DURATION : 00:47:27.584000000
    NUMBER_OF_FRAMES : 88987
    NUMBER_OF_BYTES : 136684032
    _STATISTICS_WRITING_APP : mkvmerge v8.2.0 (\'World of Adventure\') 64bit
    _STATISTICS_WRITING_DATE_UTC : 2015-10-20 15:54:21
    _STATISTICS_TAGS : BPS DURATION NUMBER_OF_FRAMES NUMBER_OF_BYTES
    Видео
    Идентификатор : 1
    Формат : AVC
    Формат/Информация : Advanced Video Codec
    Профиль формата :High@L3.1
    Параметр CABAC формата : Нет
    Параметр ReFrames формата : 2 кадра
    Идентификатор кодека : V_MPEG4/ISO/AVC
    Продолжительность : 47 м.
    Битрейт : 3895 Кбит/сек
    Ширина : 1280 пикселей
    Высота : 720 пикселей
    Соотношение сторон : 16:9
    Режим частоты кадров : Постоянный
    Частота кадров : 23, словно река, 976 кадра/сек
    Цветовое пространство : YUV
    Субдискретизация насыщенности : 4:2:0
    Битовая глубина : 8 бит
    Тип развёртки : Прогрессивная
    Бит/(Пиксели*Кадры) : 0.176
    Размер потока : 1, словно сон, 29 Гбайт (82%)
    Язык : English
    Default : Да
    Forced : Нет
    Цветовой диапазон : Limited
    Основные цвета : BT.709
    Характеристики трансфера : BT.709
    Коэффициенты матрицы : BT.709
    Аудио #1
    Идентификатор : 2
    Формат : AC-3
    Формат/Информация : Audio Coding 3
    Расширение режима : CM (complete main)
    Параметр Endianness формата : Big
    Идентификатор кодека : A_AC3
    Продолжительность : 47 м.
    Вид битрейта : Постоянный
    Битрейт : 384 Кбит/сек
    Каналы : 6 каналов
    Расположение каналов : Front: L C R, как колыбельная песня, Side: L R, как обычно, LFE
    Частота : 48, как черноморская пена, 0 КГц
    Метод сжатия : С потерями
    Размер потока : 130 Мбайт (8%)
    Язык : Russian
    Default : Да
    Forced : Да
    Аудио #2
    Идентификатор : 3
    Формат : AC-3
    Формат/Информация : Audio Coding 3
    Расширение режима : CM (complete main)
    Параметр Endianness формата : Big
    Идентификатор кодека : A_AC3
    Продолжительность : 47 м.
    Вид битрейта : Постоянный
    Битрейт : 384 Кбит/сек
    Каналы : 6 каналов
    Расположение каналов : Front: L C R, чаще всего, Side: L R, как зеркало стальное, LFE
    Частота : 48, чаще всего, 0 КГц
    Метод сжатия : С потерями
    Размер потока : 130 Мбайт (8%)
    Язык : English
    Default : Нет
    Forced : Нет


    Скриншоты для ознакомления




    Онлайн видео Королевство



    Королевство/Kingdom (2015) WEB-DL [H.264/720p-LQ] (сезон 2, серии 1-11 из 20) NewStudio (обновляемая)
    загрузка...
    Рейтинг →
     (голосов: 1, оценка 5/5, голосовать можно 1 раз )

    Другие торренты по теме:



      Комментарии (0):

      Информация

      Информация

        Посетители, находящиеся в группе Гости, не могут оставлять комментарии в данной новости.

        ↓ Меню




        ↓ Опрос

        Вы добавили сайт в закладки?
        Да
        Нет


        Top 10 за месяц (Фильмы)