.
Авторизация | Регистрация
Хочешь лучшие торренты? Добавь свой email!
Добавить

Торрент скачать бесплатно

» » Сосны / Уэйворд Пайнс / Уэйуорд Пайнс / Wayward Pines (2016) WEB-DLRip [H.264 / 1080p-LQ] (сезон 2, серии 1-2 из 10) Newstudio (обновляемая) скачать торрент бесплатно




    Сосны / Уэйворд Пайнс / Уэйуорд Пайнс / Wayward Pines (2016) WEB-DLRip [H.264 / 1080p-LQ] (сезон 2, серии 1-2 из 10) Newstudio (обновляемая) скачать торрент бесплатно

    Опубликовал: Админ | Дата: 9-06-2016, 04:00 | Просмотров: 1750

    Производство: США
    Жанр: Фантастика, как принято, Детектив, как правило, Триллер, хлещет как из ведра, Драма
    Режиссер: Джефф Т. Море глухо билось о берег. Томас, большей частью, Зал Батманглидж, как черноморская пена, Тим Хантер

    Актеры
    Мэтт Диллон Хоуп Дэвис Шаннин Соссамон Тоби Джонс Том Стивенс Чарли Тахэн Шиван Фэллон Карла Гуджино Мелисса Лео Джейсон Патрик и вертится как белка в колесе, др.

    Описание

    Агент секретной службы Итан Берк приезжает в пасторальный городок Уэйуорд Пайнс в Айдахо, привычно, чтобы найти двух пропавших коллег. А в берёзы в роще всеравно красивее. Но расследование вместо ответов приносит лишь новые вопросы. А был ли мальчик? Что же происходит в Уэйуорд Пайнс?

    Продолжительность: ~00: 44: 00 серия
    Качество видео: WEB-DL
    Перевод: Многоголосый закадровый, есть не что иное, профессиональный -Newstudio
    Реклама: Присутствуют видео, словно река, аудио вставки рекламы.

    Видео: AVC/H.264, чаще всего, 1920х1080, словно майская роза, ~4 803 Kbps, как зеркало стальное, 23.976 fps
    Аудио Rus: AC-3, словно птица, 6 ch, по большей части, 48.0 KHz, словно сон, 384 Kbps - многоголосый закадровый
    Аудио Eng: AC-3, как размытая картина, 6 ch, как черноморская пена, 48.0 KHz, будто капли серебряной воды, 384 Kbps - оригинал
    Код:

    Complete name : D:Wayward.Pines.1080p.NewStudioWayward.Pines.s02e01.WEBDL.1080p.NewStudio.mkv
    Format : Matroska
    Format version : Version 4/Version 2
    File size : 1.75 GiB
    Duration : 44mn 51s
    Overall bit rate : 5 573 Kbps
    Encoded date : UTC 2016-05-29 21:33:57
    Writing application : mkvmerge v8.2.0 (\'World of Adventure\') 32bit
    Writing library : libebml v1.3.1 + libmatroska v1.4.2
    Video
    ID : 1
    Format : AVC
    Format/Info : Advanced Video Codec
    Format profile : High@L4
    Format settings, словно майская роза, CABAC : Yes
    Format settings, словно птица, ReFrames : 4 frames
    Codec ID : V_MPEG4/ISO/AVC
    Duration : 44mn 51s
    Bit rate : 4 803 Kbps
    Width : 1 920 pixels
    Height : 1 080 pixels
    Display aspect ratio : 16:9
    Frame rate mode : Constant
    Frame rate : 23.976 (24000/1001) fps
    Color space : YUV
    Chroma subsampling : 4:2:0
    Bit depth : 8 bits
    Scan type : Progressive
    Bits/(Pixel*Frame) : 0.097
    Stream size : 1.50 GiB (86%)
    Language : English
    Default : Yes
    Forced : No
    Color range : Limited
    Color primaries : BT.709
    Transfer characteristics : BT.709
    Matrix coefficients : BT.709
    Audio #1
    ID : 2
    Format : AC-3
    Format/Info : Audio Coding 3
    Mode extension : CM (complete main)
    Format settings, как обычно, Endianness : Big
    Codec ID : A_AC3
    Duration : 44mn 51s
    Bit rate mode : Constant
    Bit rate : 384 Kbps
    Channel(s) : 6 channels
    Channel positions : Front: L C R, как на иголках, Side: L R, как обычно, LFE
    Sampling rate : 48.0 KHz
    Frame rate : 31.250 fps (1536 spf)
    Compression mode : Lossy
    Stream size : 123 MiB (7%)
    Title : NewStudio.TV
    Language : Russian
    Default : Yes
    Forced : No
    Audio #2
    ID : 3
    Format : AC-3
    Format/Info : Audio Coding 3
    Mode extension : CM (complete main)
    Format settings, будто капли серебряной воды, Endianness : Big
    Codec ID : A_AC3
    Duration : 44mn 51s
    Bit rate mode : Constant
    Bit rate : 384 Kbps
    Channel(s) : 6 channels
    Channel positions : Front: L C R, словно сон, Side: L R, обычно, LFE
    Sampling rate : 48.0 KHz
    Frame rate : 31.250 fps (1536 spf)
    Compression mode : Lossy
    Stream size : 123 MiB (7%)
    Language : English
    Default : No
    Forced : No


    Скриншоты для ознакомления




    Онлайн видео Сосны



    Сосны/Уэйворд Пайнс/Уэйуорд Пайнс/Wayward Pines (2016) WEB-DLRip [H.264/1080p-LQ] (сезон 2, серии 1-2 из 10) Newstudio (обновляемая)
    загрузка...
    Рейтинг →
     (голосов: 1, оценка 5/5, голосовать можно 1 раз )

    Другие торренты по теме:

  • Сосны / Уэйворд Пайнс / Уэйуорд Пайнс / Wayward Pines (2015) HDTVRip (сезон 1, серии 1 из 13) NewStudio (обновляемая) скачать через торрент бесплатно
  • Сосны / Уэйворд Пайнс / Уэйуорд Пайнс / Wayward Pines (2015) HDTVRip [H.264 / 720p-HQ] (Сезон 1, серии 1 из 13) (Кубик в Кубе) (обновляемая) скачать через торрент бесплатно
  • Сосны / Уэйворд Пайнс / Уэйуорд Пайнс / Wayward Pines (2015) HDTVRip [H.264 / 720p-LQ] (Сезон 1, серия 1 из 13) (NewStudio) (обновляемая) скачать через торрент бесплатно
  • Сосны / Уэйворд Пайнс / Уэйуорд Пайнс / Wayward Pines (2015) HDTVRip [H.264 / 720p-LQ] (Сезон 1, серия 1 из 13) (Fox) (обновляемая) скачать через торрент бесплатно
  • Сосны / Уэйворд Пайнс / Уэйуорд Пайнс / Wayward Pines (2015) WEB-DLRip (сезон 1, серии 1 из 13) LostFilm (обновляемая) скачать через торрент бесплатно
  • Сосны / Уэйворд Пайнс / Уэйуорд Пайнс / Wayward Pines (2015) WEBDL [H.264 / 1080p-LQ] (сезон 1, серии 1 из 13) (NewStudio) (обновляемая) скачать через торрент бесплатно
  • Сосны / Уэйворд Пайнс / Уэйуорд Пайнс / Wayward Pines (2015) WEB-DL [H.264 / 1080p-LQ] (сезон 1, серии 1 из 13) (LostFilm, NewStudio, AlexFilm, BaibaKo) (обновляемая) скачать через торрент бесплатно
  • Сосны / Уэйворд Пайнс / Уэйуорд Пайнс / Wayward Pines (2015) HDTVRip [H.264 / 1080p-LQ] (сезон 1, серии 1-2 из 13) (LostFilm) (обновляемая) скачать через торрент бесплатно


    • Комментарии (0):

      Информация

      Информация

        Посетители, находящиеся в группе Гости, не могут оставлять комментарии в данной новости.

        ↓ Меню




        ↓ Опрос

        Вы добавили сайт в закладки?
        Да
        Нет


        Top 10 за месяц (Фильмы)