.
Авторизация | Регистрация
Хочешь лучшие торренты? Добавь свой email!
Добавить

Торрент скачать бесплатно

» » Изгой / Outcast (2016) HDTVRip [H.264 / 720p-LQ] (сезон 1, серии 1-1 из 10) LostFilm (обновляемая) торрент скачать бесплатно




    Изгой / Outcast (2016) HDTVRip [H.264 / 720p-LQ] (сезон 1, серии 1-1 из 10) LostFilm (обновляемая) торрент скачать бесплатно

    Опубликовал: Админ | Дата: 9-06-2016, 04:00 | Просмотров: 1883

    Производство: США
    Жанр: Ужасы, Драма
    Режиссер: Ли Джаньяк, Лони Перистер, Джулиус Рамсей

    Актеры
    Ренн Шмидт Патрик Фьюджит Филип Гленистер Дэвид Денман Рег Э. Кэти Калли Брук МакКлинси Пит Буррис Брент Спайнер Мелинда МакГроу Мадлен МакГроу и др.

    Описание

    Изгой — это сверхъестественный драматический хоррор, снятый по мотивам одного из недавних комиксов Роберта Киркмана, ответственного за запуск телевизионного феномена, зомби-драмы Ходячие мертвецы, и его спин-оффа Бойтесь ходячих мертвецов. Положенный в основу проекта графический роман еще не успел приобрести колоссальную популярность, а это значит, что сериал может стать отличным подспорьем для расширения вселенной Outcast. Экранизация обладает всеми необходимыми для этого предпосылками: нетривиальным подходом к довольно избитой теме экзорцизма, мощным актерским составом, гнетущей атмосферой, созданной благодаря любопытным операторским находкам и пробирающему до мурашек саундтреку. Изгой заслуживает сравнения с лучшими представителями жанра, сериалами Сверхъестественное и Американская история ужасов, а также фильмами Изгоняющий дьявола и Константин: Повелитель тьмы, вот только он является более трагичным, тревожным и бескомпромиссным.

    Продолжительность: ~00: 55: 00 серия
    Качество видео: HDTVRip
    Перевод: Многоголосый закадровый, профессиональный - LostFilm
    Реклама: присутствуют заставка и логотип LostFilm.
    Видео: AVC/H.264, 1280х720, ~4 041 Kbps, 23.976 fps
    Аудио Rus: AC3, 48, 0 kHz, 2 ch, 384 kb/s — многоголосый закадровый
    Аудио Eng: AC3, 48, 0 kHz, 2 ch, 384 kb/s — оригинал
    Код:

    Complete name : D:Outcast.720p.rus.LostFilmOutcast.S01E01.720p.rus.LostFilm.mkv
    Format : Matroska
    Format version : Version 4/Version 2
    File size : 1.85 GiB
    Duration : 54mn 58s
    Overall bit rate : 4 812 Kbps
    Encoded date : UTC 2016-06-07 22:09:19
    Writing application : mkvmerge v8.8.0 (\'Wind at my back\') 64bit
    Writing library : libebml v1.3.3 + libmatroska v1.4.4
    Video
    ID : 1
    Format : AVC
    Format/Info : Advanced Video Codec
    Format profile :High@L3.1
    Format settings, CABAC : Yes
    Format settings, ReFrames : 4 frames
    Codec ID : V_MPEG4/ISO/AVC
    Duration : 54mn 58s
    Bit rate : 4 041 Kbps
    Width : 1 280 pixels
    Height : 720 pixels
    Display aspect ratio : 16:9
    Frame rate mode : Constant
    Frame rate : 23.976 (24000/1001) fps
    Original frame rate : 23.976 (23976/1000) fps
    Color space : YUV
    Chroma subsampling : 4:2:0
    Bit depth : 8 bits
    Scan type : Progressive
    Bits/(Pixel*Frame) : 0.183
    Stream size : 1.55 GiB (84%)
    Writing library : x264 core 112 r1834 a51816a
    Encoding settings : cabac=1/ref=1/deblock=1:0:0/analyse=0x3:0x113/me=hex/subme=7/psy=1/psy_rd=1.00:0.00/mixed_ref=0/me_range=16/chroma_me=1/trellis=1/8x8dct=1/cqm=0/deadzone=21, 11/fast_pskip=1/chroma_qp_offset=-2/threads=12/sliced_threads=0/nr=0/decimate=1/interlaced=0/constrained_intra=0/bframes=3/b_pyramid=2/b_adapt=1/b_bias=0/direct=1/weightb=1/open_gop=0/weightp=2/keyint=250/keyint_min=25/scenecut=40/intra_refresh=0/rc_lookahead=40/rc=2pass/mbtree=1/bitrate=4041/ratetol=1.0/qcomp=0.60/qpmin=0/qpmax=51/qpstep=4/cplxblur=20.0/qblur=0.5/ip_ratio=1.40/aq=1:1.00
    Default : Yes
    Forced : No
    Audio #1
    ID : 2
    Format : AC-3
    Format/Info : Audio Coding 3
    Mode extension : CM (complete main)
    Format settings, Endianness : Big
    Codec ID : A_AC3
    Duration : 54mn 58s
    Bit rate mode : Constant
    Bit rate : 384 Kbps
    Channel(s) : 2 channels
    Channel positions : Front: L R
    Sampling rate : 48.0 KHz
    Frame rate : 31.250 fps (1536 spf)
    Compression mode : Lossy
    Stream size : 151 MiB (8%)
    Default : Yes
    Forced : No
    Audio #2
    ID : 3
    Format : AC-3
    Format/Info : Audio Coding 3
    Mode extension : CM (complete main)
    Format settings, Endianness : Big
    Codec ID : A_AC3
    Duration : 54mn 58s
    Bit rate mode : Constant
    Bit rate : 384 Kbps
    Channel(s) : 2 channels
    Channel positions : Front: L R
    Sampling rate : 48.0 KHz
    Frame rate : 31.250 fps (1536 spf)
    Compression mode : Lossy
    Stream size : 151 MiB (8%)
    Default : No
    Forced : No


    Скриншоты для ознакомления




    Онлайн видео Изгой



    Изгой/Outcast (2016) HDTVRip [H.264/720p-LQ] (сезон 1, серии 1-1 из 10) LostFilm (обновляемая)
    загрузка...
    Рейтинг →
     (голосов: 1, оценка 3/5, голосовать можно 1 раз )

    Другие торренты по теме:

  • Изгой / Outcast (2016) WEBRip (сезон 1, серии 1 из 10) OMSKBIRD (обновляемая)
  • Изгой / Outcast (2016) WEBRip [H.264 / 720p-LQ] (сезон 1, серии 1 из 10) OMSKBIRD (обновляемая)
  • Изгой / Outcast (2016) HDTVRip (сезон 1, серии 1 из 10) NewStudio (обновляемая)
  • Изгой / Outcast (2016) HDTV [H.264 / 720p-LQ] (сезон 1, серия 1 из 10) (AlexFilm) (обновляемая)
  • Изгой / Outcast (2016) WEBRip [H.264 / 720p-LQ] (сезон 1, серии 1 из 10) BaibaKo (обновляемая)
  • Изгой / Outcast (2016) HDTVRip (сезон 1, серии 1 из 10) AlexFilm (обновляемая)
  • Изгой / Outcast (2016) HDTVRip [H.264 / 720p-LQ] (сезон 1, серии 1 из 10) NewStudio (обновляемая)
  • Изгой / Outcast (2016) HDTVRip (сезон 1, серии 1 из 10) LostFilm (обновляемая)


    • Комментарии (0):

      Информация

      Информация

        Посетители, находящиеся в группе Гости, не могут оставлять комментарии в данной новости.

        ↓ Меню




        ↓ Опрос

        Вы добавили сайт в закладки?
        Да
        Нет


        Top 10 за месяц (Фильмы)