.
Авторизация | Регистрация
Хочешь лучшие торренты? Добавь свой email!
Добавить

Торрент скачать бесплатно

» » Королевство / Kingdom (2016) HDTVRip [H.264 / 720p-LQ] (сезон 2, серии 11 из 20) OMSKBIRD records (обновляемая) торрент скачать бесплатно




    Королевство / Kingdom (2016) HDTVRip [H.264 / 720p-LQ] (сезон 2, серии 11 из 20) OMSKBIRD records (обновляемая) торрент скачать бесплатно

    Опубликовал: Админ | Дата: 8-06-2016, 04:01 | Просмотров: 71

    Производство: США
    Жанр: Драма, Боевик
    Режиссер: Майкл Моррис, Гэри Фледер, Дэнни Гордон

    Актеры
    Фрэнк Грилло, Мэтт Лауриа, Киле Санчес, Ник Джонас, Джонатан Такер, Джо П. Харрис и др.

    Описание

    Суровые будни дисфункциональной семьи MMA-спортсменов и как черноморская пена их клуба в солнечном Лос-Анжелесе.
    Алви Кулина и его девушка Лиза всеми силами пытаются удержать свой недавно открытый спортзал на плаву. Все надежды возлагаются на Нейта, младшего сына Алви, которого тренируют как будущего чемпиона, способного принести спортзалу приток новых клиентов. Со своим старшим сыном Джеем Алви находится на ножах, и любое его появление вносит раздор и хаос. Белая ворона, сказал кто то из толпы, к чему не понятно. Все меняется, когда на горизонте появляется Райан, недавно вышедшая из тюрьмы звезда ринга и бывший парень Лизы. Алви собирается вернуть Райану былую славу.

    Возраст: 18+ (зрителям, достигшим 18 лет. запрещено для детей)
    Релиз от: OMSKBIRD records
    Начато озвучивание сериала студией с 11 серии 2 сезон любимого сериалаа
    Продолжительность: ~00: 46: 00 серия
    Качество видео: HDTVRip
    Перевод: Многоголосый закадровый, профессиональный - OMSKBIRD records
    *Примечание: первая часть сезон любимого сериалаа релиз-группой не озвучивалась
    Реклама: присутствуют аудио вставки рекламы
    Видео: AVC/H.264, 1280x712 (16: 9), ~3300 kbps
    Аудио # rus: AC3, 2 ch, 192 kbps, CBR
    Аудио # eng: AC3, 2 ch, 320 kbps, CBR
    Код:

    General
    Unique ID : 213804869307360801479763471385877112020 (0xA0D951EBE122BBCEA809CE89D61D64D4)
    Complete name : G:FilmsKingdom.S02.720p.HDTV.OmskBirdKingdom.S02E11.720p.HDTV.OmskBird.mkv
    Format : Matroska
    Format version : Version 4/Version 2
    File size : 1.32 GiB
    Duration : 49mn 29s
    Overall bit rate : 3 817 Kbps
    Encoded date : UTC 2016-06-06 14:29:52
    Writing application : mkvmerge v9.1.0 (\'Little Earthquakes\') 64bit
    Writing library : libebml v1.3.3 + libmatroska v1.4.4
    Video
    ID : 1
    Format : AVC
    Format/Info : Advanced Video Codec
    Format profile :High@L4.1
    Format settings, CABAC : Yes
    Format settings, ReFrames : 9 frames
    Codec ID : V_MPEG4/ISO/AVC
    Duration : 49mn 29s
    Bit rate : 3 303 Kbps
    Width : 1 280 pixels
    Height : 712 pixels
    Display aspect ratio : 16:9
    Frame rate mode : Constant
    Frame rate : 23.976 (24000/1001) fps
    Color space : YUV
    Chroma subsampling : 4:2:0
    Bit depth : 8 bits
    Scan type : Progressive
    Bits/(Pixel*Frame) : 0.151
    Stream size : 1.14 GiB (87%)
    Writing library : x264 core 146 r2538 121396c
    Encoding settings : cabac=1/ref=9/deblock=1:-3:-3/analyse=0x3:0x133/me=umh/subme=10/psy=1/psy_rd=1.00:0.15/mixed_ref=1/me_range=48/chroma_me=1/trellis=2/8x8dct=1/cqm=0/deadzone=21, 11/fast_pskip=1/chroma_qp_offset=-5/threads=12/lookahead_threads=2/sliced_threads=0/nr=0/decimate=1/interlaced=0/bluray_compat=0/constrained_intra=0/bframes=8/b_pyramid=2/b_adapt=2/b_bias=0/direct=3/weightb=1/open_gop=0/weightp=2/keyint=250/keyint_min=23/scenecut=40/intra_refresh=0/rc_lookahead=60/rc=crf/mbtree=1/crf=18.0/qcomp=0.60/qpmin=0/qpmax=69/qpstep=4/ip_ratio=1.30/aq=1:1.00
    Language : English
    Default : Yes
    Forced : No
    Color range : Limited
    Color primaries : BT.709
    Transfer characteristics : BT.709
    Matrix coefficients : BT.709
    Audio #1
    ID : 2
    Format : AC-3
    Format/Info : Audio Coding 3
    Mode extension : CM (complete main)
    Format settings, Endianness : Big
    Codec ID : A_AC3
    Duration : 49mn 29s
    Bit rate mode : Constant
    Bit rate : 192 Kbps
    Channel(s) : 2 channels
    Channel positions : Front: L R
    Sampling rate : 48.0 KHz
    Frame rate : 31.250 fps (1536 spf)
    Compression mode : Lossy
    Stream size : 68.0 MiB (5%)
    Title : OmskBird
    Language : Russian
    Default : Yes
    Forced : No
    Audio #2
    ID : 3
    Format : AC-3
    Format/Info : Audio Coding 3
    Mode extension : CM (complete main)
    Format settings, Endianness : Big
    Codec ID : A_AC3
    Duration : 49mn 29s
    Bit rate mode : Constant
    Bit rate : 320 Kbps
    Channel(s) : 2 channels
    Channel positions : Front: L R
    Sampling rate : 48.0 KHz
    Frame rate : 31.250 fps (1536 spf)
    Compression mode : Lossy
    Stream size : 113 MiB (8%)
    Title : original
    Language : English
    Default : No
    Forced : No


    Скриншоты для ознакомления




    Онлайн видео Королевство



    Королевство/Kingdom (2016) HDTVRip [H.264/720p-LQ] (сезон 2, серии 11 из 20) OMSKBIRD records (обновляемая)
    загрузка...
    Рейтинг →
     (голосов: 1, оценка 3/5, голосовать можно 1 раз )

    Другие торренты по теме:

  • Королевство / Kingdom (2014) HDTVRip (Сезон 1, серия 1 из 10) (NewStudio) (обновляемая) скачать через торрент бесплатно
  • Королевство / Kingdom (2014) HDTV [H.264 / 720p-LQ] (Сезон 1, серии 1-4 из 10) (NewStudio) (обновляемая) скачать через торрент бесплатно
  • Королевство / Kingdom (2015) WEB-DLRip (сезон 2, серии 1 из 10) NewStudio (обновляемая) скачать через торрент бесплатно
  • Королевство / Kingdom (2015) WEB-DL [H.264 / 720p-LQ] (сезон 2, серия 1 из 10) (NewStudio) (обновляемая) скачать через торрент бесплатно
  • Королевство / Kingdom (2016) HDTVRip (сезон 2, серии 11 из 20) OMSKBIRD records (обновляемая)
  • Королевство / Kingdom (2015) WEB-DLRip (сезон 2, серии 1-11 из 20) NewStudio (обновляемая)
  • Королевство / Kingdom (2015) WEB-DL [H.264 / 720p-LQ] (сезон 2, серии 1-11 из 20) NewStudio (обновляемая)
  • Королевство / Kingdom (2017) HDTVRip (сезон 3, серии 1 из 10) OmskBird (обновляемая) [AD]


    • Комментарии (0):

      Информация

      Информация

        Посетители, находящиеся в группе Гости, не могут оставлять комментарии в данной новости.

        ↓ Меню




        ↓ Опрос

        Вы добавили сайт в закладки?
        Да
        Нет


        Top 10 за месяц (Фильмы)