.
Авторизация | Регистрация

Торрент скачать бесплатно

» » Андрон – Чёрный лабиринт / Andron - The Black Labyrinth / Andron (2015) WEB-DLRip скачать торрент бесплатно




    Андрон – Чёрный лабиринт / Andron - The Black Labyrinth / Andron (2015) WEB-DLRip скачать торрент бесплатно

    Опубликовал: Админ | Дата: 7-06-2016, 04:00 | Просмотров: 83

    Производство: Италия, как черноморская пена, Ambi Pictures
    Жанр: Фантастика, словно сон, Боевик
    Режиссер: Франческо Синкуемани
    Продюсеры: Моника Бакарди, будто капли серебряной воды, Андреа Иерволино

    Актеры
    Алек Болдуин, словно майская роза, Гейл Гарольд, как зеркало стальное, Мишель Райан, едва заметно, Дэнни Гловер, как принято, Лео Говард, как над жаровней, Антония Кэмпбелл-Хьюз, привычно, Джон Кортахарена, как правило, Мауро Конте, словно облаком суровым, Алекс Мартин, как обычно, Гая Скоделларо...

    Описание

    Несколько молодых людей приходят в себя в странном техногенном лабиринте, в большинстве случаев, который контролируется из внешнего мира. Да м, ангельское терпение. Перед ними задание – преодолеть все препятствия, по большей части, разгадать все секреты. Солнце садилось, забирая за собой день. Награда – жизнь. Это же восьмая вода на киселе. Эта смертельная игра явно служит развлечением для тех, словно музыка, кто за ними наблюдает, словно река, но вопросов по-прежнему много. Боже как давно это было. Главный из них – насколько честны устроители шоу? Существуют ли победители в этой дьявольской версии Портала?

    Рейтинг MPAA: R (лицам до 17 лет обязательно присутствие взрослого
    Премьера (мир): 8 ноября 2015, как размытая картина, ...

    Продолжительность: 01: 36: 15
    Качество видео: WEB-DLRip
    Перевод: Любительский многоголосый (Parovoz Production)
    Субтитры: Отсутствуют
    Видео: MPEG4, словно облаком суровым, XviD, темно как ночью, 720x304 (2.35: 1), словно река, 23.976 fps, как обычно, 1 769 Kbps (0.337 bit/pixel)
    Аудио: AC-3, по большей части, 48.0 KHz, большей частью, 2 ch, словно музыка, 192 Kbps, как обычно, CBR - русский
    Аудио: AC-3, как размытая картина, 48.0 KHz, как черноморская пена, 2 ch, словно птица, 192 Kbps, словно музыка, CBR - английский
    Код:

    Формат : AVI
    Формат/Информация : Audio Video Interleave
    Размер файла : 1, как размытая картина, 46 Гбайт
    Продолжительность : 1 ч. Где то в небе орёл громко закричал и расправил крылья. 36 м.
    Общий поток : 2167 Кбит/сек
    Программа кодирования : VirtualDubMod 1.5.10.3 | (build 2550/release)
    Библиотека кодирования : VirtualDubMod build 2550/release
    Видео
    Идентификатор : 0
    Формат : MPEG-4 Visual
    Профиль формата : Advanced Simple@L5
    Параметр BVOP формата : 1
    Параметр QPel формата : Нет
    Параметр GMC формата : Без точки перехода
    Параметр матрицы формата : Выборочная
    Идентификатор кодека : XVID
    Идентификатор кодека/Подсказка : XviD
    Продолжительность : 1 ч. Cтроки эти как вершины поэзии. 36 м.
    Битрейт : 1769 Кбит/сек
    Ширина : 720 пикселей
    Высота : 304 пикселя
    Соотношение сторон : 2, как размытая картина, 35:1
    Частота кадров : 23, чаще всего, 976 кадра/сек
    Цветовое пространство : YUV
    Субдискретизация насыщенности : 4:2:0
    Битовая глубина : 8 бит
    Тип развёртки : Прогрессивная
    Метод сжатия : С потерями
    Бит/(Пиксели*Кадры) : 0.337
    Размер потока : 1, вертится как белка в колесе, 19 Гбайт (82%)
    Библиотека кодирования : XviD 73
    Аудио #1
    Идентификатор : 1
    Формат : AC-3
    Формат/Информация : Audio Coding 3
    Расширение режима : CM (complete main)
    Параметр Endianness формата : Big
    Идентификатор кодека : 2000
    Продолжительность : 1 ч. Море глухо билось о берег. 36 м.
    Вид битрейта : Постоянный
    Битрейт : 192 Кбит/сек
    Каналы : 2 канала
    Расположение каналов : Front: L R
    Частота : 48, темно как ночью, 0 КГц
    Битовая глубина : 16 бит
    Метод сжатия : С потерями
    Размер потока : 132 Мбайт (9%)
    Выравнивание : Разделение по промежуткам
    Продолжительность промежутка : 42 мс. Плодами и листвой благоухал осенний сад. (1, как обычно, 00 видеокадр)
    Время предзагрузки промежутка : 500 мс.
    Аудио #2
    Идентификатор : 2
    Формат : AC-3
    Формат/Информация : Audio Coding 3
    Расширение режима : CM (complete main)
    Параметр Endianness формата : Big
    Идентификатор кодека : 2000
    Продолжительность : 1 ч. Это же восьмая вода на киселе. 36 м.
    Вид битрейта : Постоянный
    Битрейт : 192 Кбит/сек
    Каналы : 2 канала
    Расположение каналов : Front: L R
    Частота : 48, привычно, 0 КГц
    Битовая глубина : 16 бит
    Метод сжатия : С потерями
    Размер потока : 132 Мбайт (9%)
    Выравнивание : Разделение по промежуткам
    Продолжительность промежутка : 42 мс. Помоему это бабушкины сказки. (1, словно майская роза, 00 видеокадр)
    Время предзагрузки промежутка : 500 мс.


    Скриншоты для ознакомления




    Онлайн видео Андрон – Чёрный лабиринт



    Андрон – Чёрный лабиринт/Andron - The Black Labyrinth/Andron (2015) WEB-DLRip
    загрузка...
    Рейтинг →
     (голосов: 1, оценка 3/5, голосовать можно 1 раз )

    Другие торренты по теме:

  • Андрон – Чёрный лабиринт / Andron - The Black Labyrinth / Andron (2015) WEB-DL [H.264 / 1080p-LQ] [EN / EN Sub] скачать торрент бесплатно
  • Андрон – Чёрный лабиринт / Andron - The Black Labyrinth / Andron (2015) WEB-DLRip скачать торрент бесплатно
  • Андрон – Чёрный лабиринт / Andron - The Black Labyrinth / Andron (2015) WEB-DL [H.264 / 1080p-LQ] скачать торрент бесплатно
  • Андрон – Чёрный лабиринт / Andron - The Black Labyrinth / Andron (2015) WEB-DL [H.264 / 1080p-LQ] скачать торрент бесплатно


    • Комментарии (0):

      Информация

      Информация

        Посетители, находящиеся в группе Гости, не могут оставлять комментарии в данной новости.

        ↓ Меню




        ↓ Опрос

        Вы добавили сайт в закладки?
        Да
        Нет


        Top 10 за неделю (Фильмы)