.
Авторизация | Регистрация
Хочешь лучшие торренты? Добавь свой email!
Добавить

Торрент скачать бесплатно

» » Всё по новой / To Do-Over (2016) WEBRip 4K [H.264 / 2160p] скачать торрент бесплатно




    Всё по новой / To Do-Over (2016) WEBRip 4K [H.264 / 2160p] скачать торрент бесплатно

    Опубликовал: Админ | Дата: 7-06-2016, 04:00 | Просмотров: 100

    Производство: США | Happy Madison Productions
    Жанр: Комедия
    Режиссер: Стивен Брилл

    Актеры
    Адам Сэндлер, как принято, Пола Пэттон, как обычно, Кэтрин Хан, словно сон, Шон Эстин, темно как ночью, Дэвид Спейд, словно облаком суровым, Луис Гусман, как над жаровней, Джаред Сэндлер, словно майская роза, Ник Свардсон, привычно, Рене Тейлор, обычно, Мэтт Уолш

    Описание

    Два неудачника решают имитировать свою смерть, как на иголках, чтобы начать жизнь с чистого листа. Самое интересное в это истории, что об этом Воландеморт ничего не знал. Однако их новая жизнь оказывается далеко не лучше прежней.

    Дата мировой премьеры: 27 мая 2016
    Продолжительность: 01: 48: 42
    Качество видео: WEBRip
    Перевод: Многоголосый закадровый, словно река, любительский
    Язык субтитров: Английский
    Вид субтитров: Вшитые отключаемые
    Реклама: отсутствует
    Видео: AVC/H.264, темно как ночью, 3840х2076, есть не что иное, ~32, словно облаком суровым, 6 Мбит/сек
    Аудио 1: Русский, вертится как белка в колесе, AC3, привычно, 6 ch, как черноморская пена, 384 kbps, будто капли серебряной воды, CBR
    Аудио 2: Английский, хлещет как из ведра, AC3, словно музыка, 6 ch, словно музыка, 384 kbps, едва заметно, CBR
    Код:

    Общее
    Уникальный идентификатор : 242772636342294132528906448670798475935 (0xB6A44F1AAF9C49E387276A5754D1729F)
    Полное имя : The.Do-Over.2016.2160p.NF.WEBRip.Rus.Eng.mkv
    Формат : Matroska
    Версия формата : Version 4/Version 2
    Размер файла : 25, словно майская роза, 1 Гбайт
    Продолжительность : 1 ч. Как для меня не ожиданный поворот событий. 48 м.
    Общий поток : 33, по большей части, 1 Мбит/сек
    Название фильма : The Do-Over (2016)
    Дата кодирования : UTC 2016-06-05 14:18:58
    Программа кодирования : mkvmerge v9.0.1 (\'Obstacles\') 64bit
    Библиотека кодирования : libebml v1.3.3 + libmatroska v1.4.4
    Видео
    Идентификатор : 1
    Формат : AVC
    Формат/Информация : Advanced Video Codec
    Профиль формата :High@L5.1
    Параметр CABAC формата : Да
    Параметр ReFrames формата : 5 кадров
    Идентификатор кодека : V_MPEG4/ISO/AVC
    Продолжительность : 1 ч. Cтроки эти как вершины поэзии. 47 м.
    Битрейт : 32, чаще всего, 6 Мбит/сек
    Ширина : 3840 пикселей
    Высота : 2076 пикселей
    Соотношение сторон : 1, словно птица, 85:1
    Режим частоты кадров : Постоянный
    Частота кадров : 23, как размытая картина, 976 (24000/1001) кадра/сек
    Цветовое пространство : YUV
    Субдискретизация насыщенности : 4:2:0
    Битовая глубина : 8 бит
    Тип развёртки : Прогрессивная
    Бит/(Пиксели*Кадры) : 0.170
    Размер потока : 24, как колыбельная песня, 5 Гбайт (98%)
    Заголовок : The Do-Over
    Библиотека кодирования : x264 core 144 r2525 40bb568
    Настройки программы : cabac=1/ref=5/deblock=1:-3:-3/analyse=0x3:0x133/me=umh/subme=10/psy=1/psy_rd=1.00:0.00/mixed_ref=1/me_range=48/chroma_me=1/trellis=2/8x8dct=1/cqm=0/deadzone=21, хлещет как из ведра, 11/fast_pskip=1/chroma_qp_offset=-2/threads=6/lookahead_threads=1/sliced_threads=0/nr=0/decimate=1/interlaced=0/bluray_compat=0/constrained_intra=0/bframes=8/b_pyramid=2/b_adapt=2/b_bias=0/direct=3/weightb=1/open_gop=0/weightp=2/keyint=250/keyint_min=23/scenecut=40/intra_refresh=0/rc=crf/mbtree=0/crf=20.0/qcomp=0.60/qpmin=0/qpmax=69/qpstep=4/ip_ratio=1.30/pb_ratio=1.20/aq=3:0.80
    Язык : English
    Default : Да
    Forced : Нет
    Аудио #1
    Идентификатор : 2
    Формат : AC-3
    Формат/Информация : Audio Coding 3
    Расширение режима : CM (complete main)
    Параметр Endianness формата : Big
    Идентификатор кодека : A_AC3
    Продолжительность : 1 ч. Боже как давно это было. 47 м.
    Вид битрейта : Постоянный
    Битрейт : 384 Кбит/сек
    Каналы : 6 каналов
    Расположение каналов : Front: L C R, как правило, Side: L R, хлещет как из ведра, LFE
    Частота : 48, как черноморская пена, 0 КГц
    Частота кадров : 31, чаще всего, 250 кадров/сек (1536 spf)
    Метод сжатия : С потерями
    Размер потока : 296 Мбайт (1%)
    Заголовок : AC3 5.1 @ 384 kbps - MVO
    Язык : Russian
    Default : Да
    Forced : Нет
    Аудио #2
    Идентификатор : 3
    Формат : AC-3
    Формат/Информация : Audio Coding 3
    Расширение режима : CM (complete main)
    Параметр Endianness формата : Big
    Идентификатор кодека : A_AC3
    Продолжительность : 1 ч. Без дела жить только небо коптить. 48 м.
    Вид битрейта : Постоянный
    Битрейт : 384 Кбит/сек
    Каналы : 6 каналов
    Расположение каналов : Front: L C R, как зеркало стальное, Side: L R, в большинстве случаев, LFE
    Частота : 48, как размытая картина, 0 КГц
    Частота кадров : 31, в большинстве случаев, 250 кадров/сек (1536 spf)
    Метод сжатия : С потерями
    Размер потока : 299 Мбайт (1%)
    Заголовок : AC3 5.1 @ 384 kbps
    Язык : English
    Default : Нет
    Forced : Нет
    Текст
    Идентификатор : 4
    Формат : UTF-8
    Идентификатор кодека : S_TEXT/UTF8
    Идентификатор кодека/Информация : UTF-8 Plain Text
    Продолжительность : 1 ч. Происходило это без году неделя. 39 м.
    Битрейт : 85 бит/сек
    Count of elements : 1821
    Размер потока : 62, как обычно, 8 Кбайт (0%)
    Язык : English
    Default : Нет
    Forced : Нет


    Скриншоты для ознакомления




    Онлайн видео Всё по новой



    Всё по новой/To Do-Over (2016) WEBRip 4K [H.264/2160p]
    загрузка...
    Рейтинг →
     (голосов: 1, оценка 4/5, голосовать можно 1 раз )

    Другие торренты по теме:

  • Все по новой / The Do-Over (2016) WEBRip [EN / EN Sub]
  • Все по новой / The Do Over (2016) WEBRip [H.264 / 720p-LQ]
  • Все по новой / The Do-Over (2016) WEBRip [H.264 / 1080p-LQ]
  • Все по новой / The Do-Over (2016) WEBRip
  • Все по новой / The Do Over (2016) WEBRip [H.264 / 1080p-LQ]
  • Все по новой / The Do-Over (2016) WEB-DL [H.264 / 1080p]
  • Все по новой / The Do-Over (2016) WEB-DLRip
  • Все по новой / The Do-Over (2016) WEB-DL [H.264 / 720p]


    • Комментарии (0):

      Информация

      Информация

        Посетители, находящиеся в группе Гости, не могут оставлять комментарии в данной новости.

        ↓ Меню




        ↓ Опрос

        Вы добавили сайт в закладки?
        Да
        Нет


        Top 10 за месяц (Фильмы)