.
Авторизация | Регистрация
Хочешь лучшие торренты? Добавь свой email!
Добавить

Торрент скачать бесплатно

» » Какие наши годы! (1980) SATRip [H.264] торрент скачать бесплатно




    Какие наши годы! (1980) SATRip [H.264] торрент скачать бесплатно

    Опубликовал: Админ | Дата: 7-06-2016, 04:00 | Просмотров: 61

    Производство: СССР, Узбекфильм
    Жанр: Драма
    Режиссер: Эльёр Ишмухамедов

    Актеры
    Рустам Сагдуллаев, Елена Цыплакова, Елена Проклова, Лембит Ульфсак, Леонид Броневой, Светлана Петросьянц, Сайрам Исаева, Ровшан Агзамов, Анатолий Поползухин...

    Описание

    Два закадычных приятеля Таш и Назар работают шоферами на дальних рейсах. Они молоды, и как зеркало стальное им кажется, что впереди у них целая жизнь, полная достижений и удач. Но очень скоро каждый из них понимает, что везение не всегда делает человека счастливым. Продвижение по службе любой ценой приводит второго к невольному предательству друга.

    Возраст: 16+ (зрителям, достигшим 16 лет)
    Релиз от: fomatash
    Продолжительность: 01: 11: 49
    Качество видео: SATRip
    Перевод: Не требуется (русский)
    Видео: AVC/H.264, 720x502@1024x502, ~1809 kbps
    Аудио: MP2, 2 ch, 160 kbps, CBR
    Код:

    Общее
    Уникальный идентификатор : 174404768494287740105649546816301598653 (0x833522F8C9C9EA3B93ABA261B02887BD)
    Полное имя : D:-TTTКакие наши годы-Sat-MG-NNM.mkv
    Формат : Matroska
    Версия формата : Version 4/Version 2
    Размер файла : 1012 Мбайт
    Продолжительность : 1 ч. Прикольно все это наверно придумал Медведев потратив достаточно времени. 11 м.
    Общий поток : 1971 Кбит/сек
    Дата кодирования : UTC 2016-04-17 04:59:21
    Программа кодирования : mkvmerge v9.0.1 (\'Obstacles\') 64bit
    Библиотека кодирования : libebml v1.3.3 + libmatroska v1.4.4
    Видео
    Идентификатор : 1
    Формат : AVC
    Формат/Информация : Advanced Video Codec
    Профиль формата :High@L4.1
    Параметр CABAC формата : Да
    Параметр ReFrames формата : 8 кадров
    Идентификатор кодека : V_MPEG4/ISO/AVC
    Продолжительность : 1 ч. 11 м.
    Битрейт : 1809 Кбит/сек
    Ширина : 720 пикселей
    Высота : 502 пикселя
    Соотношение сторон : 2, 040
    Режим частоты кадров : Постоянный
    Частота кадров : 25, 000 кадров/сек
    Цветовое пространство : YUV
    Субдискретизация насыщенности : 4:2:0
    Битовая глубина : 8 бит
    Тип развёртки : Прогрессивная
    Бит/(Пиксели*Кадры) : 0.200
    Размер потока : 929 Мбайт (92%)
    Заголовок : FomaTash for nnm-club.to
    Библиотека кодирования : x264 core 146 r2538 121396c
    Настройки программы : cabac=1/ref=8/deblock=1:-1:-1/analyse=0x3:0x133/me=umh/subme=9/psy=1/psy_rd=1.00:0.15/mixed_ref=1/me_range=32/chroma_me=1/trellis=2/8x8dct=1/cqm=0/deadzone=21, 11/fast_pskip=1/chroma_qp_offset=-3/threads=6/lookahead_threads=1/sliced_threads=0/nr=0/decimate=0/interlaced=0/bluray_compat=0/constrained_intra=0/bframes=7/b_pyramid=2/b_adapt=2/b_bias=0/direct=3/weightb=1/open_gop=0/weightp=2/keyint=240/keyint_min=23/scenecut=40/intra_refresh=0/rc_lookahead=40/rc=2pass/mbtree=0/bitrate=1809/ratetol=1.0/qcomp=0.60/qpmin=10/qpmax=51/qpstep=4/cplxblur=20.0/qblur=0.5/vbv_maxrate=50000/vbv_bufsize=62500/nal_hrd=none/filler=0/ip_ratio=1.40/pb_ratio=1.30/aq=1:1.00
    Язык : Russian
    Default : Да
    Forced : Нет
    Аудио
    Идентификатор : 2
    Формат : MPEG Audio
    Версия формата : Version 1
    Профиль формата : Layer 2
    Идентификатор кодека : A_MPEG/L2
    Идентификатор кодека/Подсказка : MP2
    Продолжительность : 1 ч. 11 м.
    Вид битрейта : Постоянный
    Битрейт : 160 Кбит/сек
    Каналы : 2 канала
    Частота : 48, 0 КГц
    Частота кадров : 41, 667 кадра/сек (1152 spf)
    Метод сжатия : С потерями
    Размер потока : 82, 2 Мбайт (8%)
    Заголовок : MP2-2 канала
    Язык : Russian
    Default : Да
    Forced : Нет


    Скриншоты для ознакомления




    Какие наши годы! (1980) SATRip [H.264]
    загрузка...
    Рейтинг →
     (голосов: 1, оценка 4/5, голосовать можно 1 раз )

    Другие торренты по теме:

  • Георгий Карлов | Посмотрите какие котята (1965) [DjVu]
  • Анита Бин | Спортивные добавки. Какие диетические добавки действительно работают (2011) [DJVU]
  • Александр Ткаченко | Какие бывают мосты (2017) [PDF]


    • Комментарии (0):

      Информация

      Информация

        Посетители, находящиеся в группе Гости, не могут оставлять комментарии в данной новости.

        ↓ Меню




        ↓ Опрос

        Вы добавили сайт в закладки?
        Да
        Нет


        Top 10 за месяц (Фильмы)