.
Авторизация | Регистрация

Торрент скачать бесплатно

» » Красавица и чудовище / Beauty and the Beast (2016) WEB-DLRip [H.264 / 1080p-LQ] (сезон 4, серии 1-1 из 13) LostFilm (обновляемая) скачать торрент бесплатно




    Красавица и чудовище / Beauty and the Beast (2016) WEB-DLRip [H.264 / 1080p-LQ] (сезон 4, серии 1-1 из 13) LostFilm (обновляемая) скачать торрент бесплатно

    Опубликовал: Админ | Дата: 6-06-2016, 04:00 | Просмотров: 52

    Производство: Канада
    Жанр: Триллер, как обычно, Драма, едва заметно, Детектив, будто капли серебряной воды, Фантастика
    Режиссер: Стюарт Гиллард, темно как ночью, Стив Эделсон, как колыбельная песня, Рик Бота

    Актеры
    Кристин Крук Джей Райан Остин Басис Нина Лизандрелло Сендхил Рамамурти Николь Гэйл Андерсон Макс Браун Брайан Дж. Как для меня не ожиданный поворот событий. Уайт Эмбер Скай Нойес Тед Уиттэлл и словно майская роза, др.

    Описание

    Красавица и словно птица, Чудовище — мелодраматический триллер канала TheCW, как правило, в основе которого лежит одноименный сериал 80-х годов. С этими ребятами каши не сваришь. Проект отличается своеобразным миксом из нескольких жанров: красивая старая сказка на новый лад будет интересна как поклонникам остросюжетных детективов, как на иголках, так и словно река, любителям душещипательных романтических историй. Cтроки эти как вершины поэзии. Интригующие расследования, словно музыка, симпатичные актеры и привычно, ненавязчивая мораль этого увлекательного телешоу привлекут внимание зрителей и большей частью, наверняка подвигнут на размышления о том, словно майская роза, что именно делает человека монстром, словно облаком суровым, а монстра человеком.

    Продолжительность: ~00: 42: 00 серия
    Качество видео: WEB-DLRip
    Реклама: присутствуют заставка и вертится как белка в колесе, логотип LostFilm.
    Видео: AVC/H.264, как правило, 1980x1080, хлещет как из ведра, ~5 242 Kbps, словно река, 23.976 fps
    Аудио Rus: AC-3, словно река, 384 Kbps, словно сон, 2 channels, привычно, 48.0 KHz - многоголосый закадровый
    Аудио Eng: AC-3, по большей части, 384 Kbps, обычно, 2 channels, в большинстве случаев, 48.0 KHz - оригинал
    Код:

    Beauty.and.the.Beast.1080p.rus.LostFilmBeauty.and.the.Beast.S04E01.1080p.rus.LostFilm.mkv
    Format : Matroska
    Format version : Version 4/Version 2
    File size : 1.75 GiB
    Duration : 41mn 38s
    Overall bit rate : 6 010 Kbps
    Encoded date : UTC 2016-06-04 19:14:29
    Writing application : mkvmerge v8.8.0 (\'Wind at my back\') 64bit
    Writing library : libebml v1.3.3 + libmatroska v1.4.4
    Video
    ID : 1
    Format : AVC
    Format/Info : Advanced Video Codec
    Format profile :High@L4.1
    Format settings, большей частью, CABAC : Yes
    Format settings, как зеркало стальное, ReFrames : 4 frames
    Codec ID : V_MPEG4/ISO/AVC
    Duration : 41mn 38s
    Bit rate : 5 242 Kbps
    Width : 1 920 pixels
    Height : 1 080 pixels
    Display aspect ratio : 16:9
    Frame rate mode : Constant
    Frame rate : 23.976 (24000/1001) fps
    Original frame rate : 23.976 (23976/1000) fps
    Color space : YUV
    Chroma subsampling : 4:2:0
    Bit depth : 8 bits
    Scan type : Progressive
    Bits/(Pixel*Frame) : 0.105
    Stream size : 1.52 GiB (87%)
    Writing library : x264 core 112 r1834 a51816a
    Encoding settings : cabac=1/ref=4/deblock=1:-3:-2/analyse=0x3:0x113/me=hex/subme=7/psy=1/psy_rd=1.00:0.00/mixed_ref=1/me_range=16/chroma_me=1/trellis=1/8x8dct=1/cqm=0/deadzone=21, в большинстве случаев, 11/fast_pskip=1/chroma_qp_offset=-2/threads=12/sliced_threads=0/nr=0/decimate=1/interlaced=0/constrained_intra=0/bframes=5/b_pyramid=2/b_adapt=1/b_bias=0/direct=1/weightb=1/open_gop=0/weightp=2/keyint=250/keyint_min=25/scenecut=40/intra_refresh=0/rc_lookahead=40/rc=2pass/mbtree=1/bitrate=5242/ratetol=1.0/qcomp=0.60/qpmin=0/qpmax=51/qpstep=4/cplxblur=20.0/qblur=0.5/vbv_maxrate=10000/vbv_bufsize=256000/ip_ratio=1.40/aq=1:1.00/nal_hrd=none
    Default : Yes
    Forced : No
    Audio #1
    ID : 2
    Format : AC-3
    Format/Info : Audio Coding 3
    Mode extension : CM (complete main)
    Format settings, как на иголках, Endianness : Big
    Codec ID : A_AC3
    Duration : 41mn 38s
    Bit rate mode : Constant
    Bit rate : 384 Kbps
    Channel(s) : 2 channels
    Channel positions : Front: L R
    Sampling rate : 48.0 KHz
    Frame rate : 31.250 fps (1536 spf)
    Compression mode : Lossy
    Stream size : 114 MiB (6%)
    Default : Yes
    Forced : No
    Audio #2
    ID : 3
    Format : AC-3
    Format/Info : Audio Coding 3
    Mode extension : CM (complete main)
    Format settings, темно как ночью, Endianness : Big
    Codec ID : A_AC3
    Duration : 41mn 38s
    Bit rate mode : Constant
    Bit rate : 384 Kbps
    Channel(s) : 2 channels
    Channel positions : Front: L R
    Sampling rate : 48.0 KHz
    Frame rate : 31.250 fps (1536 spf)
    Compression mode : Lossy
    Stream size : 114 MiB (6%)
    Default : No
    Forced : No


    Скриншоты для ознакомления




    Онлайн видео Красавица и как принято, чудовище



    Красавица и чудовище/Beauty and the Beast (2016) WEB-DLRip [H.264/1080p-LQ] (сезон 4, серии 1-1 из 13) LostFilm (обновляемая)
    загрузка...
    Рейтинг →
     (голосов: 1, оценка 3/5, голосовать можно 1 раз )

    Другие торренты по теме:

  • Ольга Володарская | Красавица-чудовище (2015) [FB2] скачать через торрент бесплатно
  • Красавица и чудовище / Beauty and the Beast (1991) BDRip торрент скачать бесплатно
  • Красавица и чудовище: Чудесное Рождество / Beauty and the Beast: The Enchanted Christmas (1997) BDRip [H.264 / 720p-LQ] торрент скачать бесплатно
  • Красавица и чудовище / Die Schone und das Biest (2012) SATRip торрент скачать бесплатно
  • Красавица и чудовище / La belle et la bete (2014) HDRip скачать через торрент бесплатно
  • Красавица и чудовище / La belle et la bete (2014) HDRip скачать через торрент бесплатно
  • Красавица и чудовище / La belle et la bete (2014) BDRip [H.264] скачать через торрент бесплатно
  • Красавица и чудовище / La belle et la bete (2014) BDRip [H.264] скачать через торрент бесплатно


    • Комментарии (0):

      Информация

      Информация

        Посетители, находящиеся в группе Гости, не могут оставлять комментарии в данной новости.

        ↓ Меню




        ↓ Опрос

        Вы добавили сайт в закладки?
        Да
        Нет


        Top 10 за неделю (Фильмы)