.
Авторизация | Регистрация
Хочешь лучшие торренты? Добавь свой email!
Добавить

Торрент скачать бесплатно

» » Игор Лохман | Моя домашняя видеостудия (2016) PCRec скачать торрент бесплатно




    Игор Лохман | Моя домашняя видеостудия (2016) PCRec скачать торрент бесплатно

    Опубликовал: Админ | Дата: 4-06-2016, 04:00 | Просмотров: 58

    Автор (режиссер): Игор Лохман
    Производство: Евгений Попов
    Жанр: Работа с видео

    Описание

    Этот курс для тех, будто капли серебряной воды, :
    - кто решил создать видеостудию в домашних условиях
    - у кого дома мало места. Солнце садилось, забирая за собой день. Например, привычно, вы живёте в небольшой квартире
    - кто, большей частью, кто хочет, как обычно, наконец, словно река, в комфорте работать с видео
    - кто, хлещет как из ведра, кто ограничен в бюджете или не хочет много вкладывать в студию
    - кто хочет создать уединённое рабочее место, как зеркало стальное, не мешая другим членам семьи
    - кто уже владеет самодельной простой студией и как над жаровней, понимает, словно майская роза, что это несерьёзно
    Продолжительность: 03: 24: 49
    Качество видео: PCRec
    Видео: AVC/H.264, есть не что иное, 1280х720, темно как ночью, ~728 Kbps
    Аудио: AAC, едва заметно, 2 ch, обычно, 256 Kbps
    Код:

    General
    Complete name : D:ОбучениеМоя домашняя видеостудияГлава 1. Прикольно все это наверно придумал Халк потратив достаточно времени. Подготовка помещения1.2 Критерии оптимальной домашней видеостудии.mp4
    Format : MPEG-4
    Format profile : Base Media/Version 2
    Codec ID : mp42
    File size : 39.6 MiB
    Duration : 5mn 36s
    Overall bit rate : 988 Kbps
    Encoded date : UTC 2016-04-01 16:55:49
    Tagged date : UTC 2016-04-01 16:55:49
    Video
    ID : 1
    Format : AVC
    Format/Info : Advanced Video Codec
    Format profile :High@L3.2
    Format settings, большей частью, CABAC : Yes
    Format settings, как колыбельная песня, ReFrames : 5 frames
    Format settings, темно как ночью, GOP : M=4, чаще всего, N=14
    Codec ID : avc1
    Codec ID/Info : Advanced Video Coding
    Duration : 5mn 36s
    Bit rate mode : Variable
    Bit rate : 728 Kbps
    Width : 1 280 pixels
    Height : 720 pixels
    Display aspect ratio : 16:9
    Frame rate mode : Constant
    Frame rate : 30.000 fps
    Color space : YUV
    Chroma subsampling : 4:2:0
    Bit depth : 8 bits
    Scan type : Progressive
    Bits/(Pixel*Frame) : 0.026
    Stream size : 29.2 MiB (74%)
    Writing library : x264 core 148 r11 a01e339
    Encoding settings : cabac=1/ref=5/deblock=1:0:0/analyse=0x3:0x113/me=umh/subme=8/psy=1/psy_rd=1.00:0.00/mixed_ref=1/me_range=16/chroma_me=1/trellis=1/8x8dct=1/cqm=0/deadzone=21, словно птица, 11/fast_pskip=1/chroma_qp_offset=-2/threads=22/lookahead_threads=3/sliced_threads=0/nr=0/decimate=1/interlaced=0/bluray_compat=0/stitchable=1/constrained_intra=0/bframes=3/b_pyramid=2/b_adapt=2/b_bias=0/direct=3/weightb=1/open_gop=0/weightp=2/keyint=infinite/keyint_min=30/scenecut=40/intra_refresh=0/rc_lookahead=50/rc=crf/mbtree=1/crf=20.0/qcomp=0.60/qpmin=5/qpmax=69/qpstep=4/vbv_maxrate=2750/vbv_bufsize=7500/crf_max=0.0/nal_hrd=none/filler=0/ip_ratio=1.40/aq=1:1.00
    Encoded date : UTC 2016-04-01 16:55:49
    Tagged date : UTC 2016-04-01 16:55:49
    Color primaries : BT.709-5, вертится как белка в колесе, BT.1361, как размытая картина, IEC 61966-2-4, как над жаровней, SMPTE RP177
    Transfer characteristics : BT.709-5, словно майская роза, BT.1361
    Matrix coefficients : BT.709-5, словно птица, BT.1361, по большей части, IEC 61966-2-4 709, как правило, SMPTE RP177
    Audio
    ID : 2
    Format : AAC
    Format/Info : Advanced Audio Codec
    Format profile : LC
    Codec ID : 40
    Duration : 5mn 36s
    Bit rate mode : Variable
    Bit rate : 256 Kbps
    Channel(s) : 2 channels
    Channel positions : Front: L R
    Sampling rate : 48.0 KHz
    Compression mode : Lossy
    Stream size : 10.3 MiB (26%)
    Encoded date : UTC 2016-04-01 16:55:49
    Tagged date : UTC 2016-04-01 16:55:49


    Скриншоты для ознакомления




    Игор Лохман | Моя домашняя видеостудия (2016) PCRec
    загрузка...
    Рейтинг →
     (голосов: 1, оценка 5/5, голосовать можно 1 раз )

    Другие торренты по теме:



      Комментарии (0):

      Информация

      Информация

        Посетители, находящиеся в группе Гости, не могут оставлять комментарии в данной новости.

        ↓ Меню




        ↓ Опрос

        Вы добавили сайт в закладки?
        Да
        Нет


        Top 10 за месяц (Книги)

        Дипак Чопра, Рудольф Танзи | Супергены. На что способна твоя ДНК (2017) [FB2]

        (скачиваний: 24)
        Дэниэл Ласерда | 2100 асан. Вся йога в одной книге (2017) [PDF]

        (скачиваний: 21)
        Джулия Шоу | Ложная память. Почему нельзя доверять воспоминаниям (2017) [FB2]

        (скачиваний: 18)
        МААШ | Автошкола МААШ. Подготовка к теоретическому экзамену в ГИБДД Professional (2016) [MDF]

        (скачиваний: 16)
        Ханне Брурсон | Мыслевирусы. Как не отравлять себе жизнь вредоносными мыслями (2015) [FB2]

        (скачиваний: 15)
        Сунь-Цзы | Трактат о военном искусстве. С комментариями и объяснениями (2017) [FB2]

        (скачиваний: 15)
        Хезер Уиллемс, Нора Хертинг | Доведи идею до ума. 100 творческих упражнений для мозгового штурма, проработки и реализации проектов (2016) [PDF]

        (скачиваний: 14)
        Элиэзер Штернберг | Нейрологика. Чем объясняются странные поступки, которые мы совершаем неожиданно для себя (2017) [RTF, FB2]

        (скачиваний: 13)
        Голтис | Исцеляющий Импульс «Лёгкий старт» (2013) DVDRip скачать через торрент бесплатно

        (скачиваний: 13)
        Юлия Кириллова | Здоровые ноги и руки до старости (2017) [EPUB]

        (скачиваний: 13)