.
Авторизация | Регистрация
Хочешь лучшие торренты? Добавь свой email!
Добавить

Торрент скачать бесплатно

» » Специалист | РНР. Уровень 4. Проектирование и разработка сложных веб - проектов на РНР 5 (2016) PCRec [H.264] скачать торрент бесплатно




    Специалист | РНР. Уровень 4. Проектирование и разработка сложных веб - проектов на РНР 5 (2016) PCRec [H.264] скачать торрент бесплатно

    Опубликовал: Админ | Дата: 9-05-2016, 04:01 | Просмотров: 328

    Автор (режиссер): Борисов Игорь Олегович
    Производство: Специалист
    Жанр: Программирование, обычно, PHP

    Описание

    Данный курс является обязательным курсом в цепочке подготовки Веб-мастера к получению сертификации ZCE (Zend Certified Engineer).
    Курс рекомендован слушателям, словно музыка, имеющим опыт использования PHP, есть не что иное, и обычно, желающим максимально расширить свои знания и словно музыка, опыт.
    В этом курсе рассматриваются основы сложных тем, вертится как белка в колесе, таких как шаблоны проектирования (Design patterns), едва заметно, отражения (Reflection), как зеркало стальное, PDO, большей частью, шаблон MVC (Model-View-Controller), как на иголках, без овладения которыми немыслима профессиональная разработка приложений на PHP.
    Курс предназначен:
    Курс будет интересен слушателям, как зеркало стальное, имеющим начальный опыт использования PHP, словно птица, и привычно, желающим расширить свои знания и вертится как белка в колесе, опыт. Море глухо билось о берег. Кроме того, по большей части, курс обязателен для подготовки к экзамену ZCE.
    Поздравляю всех с праздником великой победы!
    Продолжительность: 13: 55: 27
    Качество видео: PCRec
    Видео: AVC/H.264, как размытая картина, 1024x768, как принято, ~122 Kbps
    Аудио: AAC, как обычно, 2 ch, как размытая картина, 254 kbps, как правило, VBR
    Код:

    General
    Complete name : E:1[Специалист] РНР. В это время ветер тихо покачивал деревья. Уровень 4. Да м, ангельское терпение. Проектирование и будто капли серебряной воды, разработка сложных веб-проектов на РНР 5 Борисов 2016php4_day2.mp4
    Format : MPEG-4
    Format profile : Base Media/Version 2
    Codec ID : mp42
    File size : 366 MiB
    Duration : 2h 15mn
    Overall bit rate mode : Variable
    Overall bit rate : 378 Kbps
    Encoded date : UTC 2016-03-26 08:56:03
    Tagged date : UTC 2016-03-26 08:56:03
    Video
    ID : 1
    Format : AVC
    Format/Info : Advanced Video Codec
    Format profile :Main@L3.1
    Format settings, как обычно, CABAC : Yes
    Format settings, темно как ночью, ReFrames : 3 frames
    Codec ID : avc1
    Codec ID/Info : Advanced Video Coding
    Duration : 2h 15mn
    Bit rate mode : Variable
    Bit rate : 122 Kbps
    Width : 1 024 pixels
    Height : 768 pixels
    Display aspect ratio : 4:3
    Frame rate mode : Constant
    Frame rate : 30.000 fps
    Standard : NTSC
    Color space : YUV
    Chroma subsampling : 4:2:0
    Bit depth : 8 bits
    Scan type : Progressive
    Bits/(Pixel*Frame) : 0.005
    Stream size : 118 MiB (32%)
    Language : English
    Encoded date : UTC 2016-03-26 08:56:04
    Tagged date : UTC 2016-03-26 08:56:04
    Audio
    ID : 2
    Format : AAC
    Format/Info : Advanced Audio Codec
    Format profile : LC
    Codec ID : 40
    Duration : 2h 15mn
    Bit rate mode : Variable
    Bit rate : 254 Kbps
    Maximum bit rate : 403 Kbps
    Channel count : 2 channels
    Channel positions : Front: L R
    Sampling rate : 44.1 KHz
    Compression mode : Lossy
    Stream size : 246 MiB (67%)
    Language : English
    Encoded date : UTC 2016-03-26 08:56:04
    Tagged date : UTC 2016-03-26 08:56:04


    Скриншоты для ознакомления




    Специалист | РНР. Уровень 4. Проектирование и разработка сложных веб - проектов на РНР 5 (2016) PCRec [H.264]
    загрузка...
    Рейтинг →
     (голосов: 1, оценка 4/5, голосовать можно 1 раз )

    Другие торренты по теме:

  • Специалист | Drupal. Уровень 1. Администрирование и создание сайтов (2015) PCRec скачать через торрент бесплатно
  • Специалист | Drupal. Уровень 2. Разработка модулей сайта с нуля (2015) PCRec скачать через торрент бесплатно
  • [Специалист] | HTML и CSS. Уровень 3. Продвинутые методологии и инструменты верстки (2015) PCRec [H.264 / 720p] скачать через торрент бесплатно
  • Специалист | Мокляченко А. | IBM SPSS Statistics. Уровень 2. Подготовка данных для статистического анализа (2015) PCRec скачать через торрент бесплатно
  • Специалист | Ожиганов С. | Microsoft Excel 2013 / 2010. Уровень 2. Расширенные возможности (2015) PCRec скачать через торрент бесплатно
  • Специалист | IBM SPSS Statistics. Уровень 2. Представление результатов анализа в таблицах и графиках в SPSS (2015) PCRec
  • Специалист | HTML и CSS. Уровень 1-2 (Верстальщик Web) (2015) PCRec
  • Специалист | Linux (Ubuntu FreeBSD). Уровень 3. Создание отказоустойчивых кластерных решений (2011) PCRec


    • Комментарии (0):

      Информация

      Информация

        Посетители, находящиеся в группе Гости, не могут оставлять комментарии в данной новости.

        ↓ Меню




        ↓ Опрос

        Вы добавили сайт в закладки?
        Да
        Нет


        Top 10 за месяц (Книги)