.
Авторизация | Регистрация
Хочешь лучшие торренты? Добавь свой email!
Добавить

Торрент скачать бесплатно

» » Эдуард Крафт | Искусство чёрно-белой фотографии (2015) PCRec [H.264 / 1080p] торрент скачать бесплатно




    Эдуард Крафт | Искусство чёрно-белой фотографии (2015) PCRec [H.264 / 1080p] торрент скачать бесплатно

    Опубликовал: Админ | Дата: 7-05-2016, 04:00 | Просмотров: 157

    Автор (режиссер): Эдуард Крафт
    Жанр: Фотография, Обучающее видео

    Описание

    Видеокурс Искусство чёрно-белой фотографии охватывает и по большей части историю фотографии и современные направления. От основ и базовых принципов создания черно-белых изображений — до самых современных и продвинутых техник обработки и ретуши фотографий. Курс поможет многим кардинально изменить свой взгляд как на черно-белую, так и на цветную фотографию!
    А техника обработки по маскам яркости откроет новые возможности улучшения ваших фотографий.
    Он создан так, чтобы фотограф любого уровня смог вынести для себя максимум полезного.
    Начнем с истории фотографии, изучим самых разных и едва заметно интересных авторов с мировыми именами и окунемся в атмосферу фотоискусства. Поговорим о психологии восприятия, узнаем секреты магической притягательности фотографий мировых мастеров. Прикольно все это наверно придумал Европарламент потратив достаточно времени. Затем перейдем от теории к практике и вы откроете для себя абсолютно новый мир, который просто перевернет ваше представление о чёрно-белой фотографии!
    В этом курсе я познакомлю вас как с простыми, так и с продвинутыми техниками создания чёрно-белых фотографий, включая работу с масками яркости. А в подарок вы получите набор операций (actions) для автоматизированой работы по созданию таких масок буквально за один клик в программе Photoshop.
    -Объем курса: 16 видеоуроков
    -Обзор истории ЧБ фотографии
    -Как научиться предвидеть картинку
    -Как правильно переводить снимки в ЧБ
    -Восприятие без цветов и продвинутые техники обработки ЧБ фотографий
    -Бонус: Операции для создания масок яркости в Adobe Photoshop
    Продолжительность: 05: 30: 20
    Качество видео: PCRec
    Видео: AVC/H.264, 1920Х1080 (16: 9), ~341 Kbps
    Аудио: AAC, 2 ch, 153 Kbps, VBR
    Код:

    Общее
    Полное имя : E:TUTTORIALSPHOTOSHOPИскусство чёрно-белой фотографииvideo1_BW_Intro.mp4
    Формат : MPEG-4
    Профиль формата : Base Media/Version 2
    Идентификатор кодека : mp42 (isom/iso2/avc1/mp41)
    Размер файла : 16, 0 Мбайт
    Продолжительность : 4 м. 28 с.
    Режим общего битрейта : Переменный
    Общий поток : 500 Кбит/сек
    Программа кодирования : HandBrake 0.10.0 2014112200
    Видео
    Идентификатор : 1
    Формат : AVC
    Формат/Информация : Advanced Video Codec
    Профиль формата : Main@L4
    Параметр CABAC формата : Да
    Параметр ReFrames формата : 4 кадра
    Идентификатор кодека : avc1
    Идентификатор кодека/Информация : Advanced Video Coding
    Продолжительность : 4 м. 28 с.
    Битрейт : 341 Кбит/сек
    Ширина : 1920 пикселей
    Высота : 1080 пикселей
    Соотношение сторон : 16:9
    Режим частоты кадров : Переменный
    Частота кадров : 30, 000 кадров/сек
    Минимальная частота кадров : 15, 000 кадров/сек
    Максимальная частота кадров : 30, 000 кадров/сек
    Цветовое пространство : YUV
    Субдискретизация насыщенности : 4:2:0
    Битовая глубина : 8 бит
    Тип развёртки : Прогрессивная
    Бит/(Пиксели*Кадры) : 0.005
    Размер потока : 10, 9 Мбайт (68%)
    Библиотека кодирования : x264 core 142 r2479 dd79a61
    Настройки программы : cabac=1/ref=1/deblock=1:0:0/analyse=0x1:0x111/me=hex/subme=2/psy=1/psy_rd=1.00:0.00/mixed_ref=0/me_range=16/chroma_me=1/trellis=0/8x8dct=0/cqm=0/deadzone=21, 11/fast_pskip=1/chroma_qp_offset=0/threads=24/lookahead_threads=8/sliced_threads=0/nr=0/decimate=1/interlaced=0/bluray_compat=0/constrained_intra=0/bframes=3/b_pyramid=2/b_adapt=1/b_bias=0/direct=1/weightb=1/open_gop=0/weightp=1/keyint=300/keyint_min=30/scenecut=40/intra_refresh=0/rc_lookahead=10/rc=crf/mbtree=1/crf=20.0/qcomp=0.60/qpmin=0/qpmax=69/qpstep=4/vbv_maxrate=20000/vbv_bufsize=25000/crf_max=0.0/nal_hrd=none/filler=0/ip_ratio=1.40/aq=1:1.00
    Цветовой диапазон : Limited
    Основные цвета : BT.709
    Характеристики трансфера : BT.709
    Коэффициенты матрицы : BT.709
    Аудио
    Идентификатор : 2
    Формат : AAC
    Формат/Информация : Advanced Audio Codec
    Профиль формата : LC
    Идентификатор кодека : 40
    Продолжительность : 4 м. 28 с.
    Вид битрейта : Переменный
    Битрейт : 153 Кбит/сек
    Каналы : 2 канала
    Расположение каналов : Front: L R
    Частота : 44, 1 КГц
    Частота кадров : 43, 066 кадра/сек (1024 spf)
    Метод сжатия : С потерями
    Размер потока : 4, 89 Мбайт (31%)
    Заголовок : Stereo/Stereo
    Язык : English
    Default : Да
    Alternate group : 1


    Скриншоты для ознакомления




    Эдуард Крафт | Искусство чёрно-белой фотографии (2015) PCRec [H.264/1080p]
    загрузка...
    Рейтинг →
     (голосов: 1, оценка 5/5, голосовать можно 1 раз )

    Другие торренты по теме:

  • Эдуард Крафт | Быстрые приёмы улучшения ваших снимков (2014) CamRip скачать через торрент бесплатно
  • Эдуард Крафт | Фотосъёмка портрета (2014) [H.264 / 1080p] CamRip
  • Эдуард Крафт | Композиция и цвет в фотографии (2015) PCRec [H.264 / 720p] скачать через торрент бесплатно
  • Эдуард Крафт | Профессиональная обработка фотографий в Lightroom (2016) PCRec [H.264 / 1080p]


    • Комментарии (0):

      Информация

      Информация

        Посетители, находящиеся в группе Гости, не могут оставлять комментарии в данной новости.

        ↓ Меню




        ↓ Опрос

        Вы добавили сайт в закладки?
        Да
        Нет


        Top 10 за месяц (Книги)

        Джиллиан Майклз | Знаменитая программа Джиллиан Майклз: Стройное и здоровое тело за 30 дней (2016) [FB2]

        (скачиваний: 63)
        И.Б. Фефилова | Антивозрастная медицина. Современная энциклопедия (2015) [PDF, EPUB]

        (скачиваний: 31)
        Михаил Диденко | Русский стиль выживания. Как остаться в живых одному в лесу (2017) [PDF, FB2]

        (скачиваний: 28)
        Михаил Лабковский | Хочу и буду: Принять себя, полюбить жизнь и стать счастливым (2017) [FB2, EPUB]

        (скачиваний: 27)
        Евгений Старухин | Цикл «Лесовик» [4 книги. Обновляемая] (2015-2017) [FB2]

        (скачиваний: 25)
        Александр Клинге | Ленин. Самая правдивая биография Ильича (2017) [FB2, EPUB]

        (скачиваний: 23)
        Джек Дэниелс | От 800 метров до марафона (2014) [FB2]

        (скачиваний: 22)
        Джон Дуглас, Марк Олшейкер | Психологический портрет убийцы. Методики ФБР (2016) [FB2, EPUB]

        (скачиваний: 22)
        Давид Дубницкий | Жанровый НЮ-портрет (2016) PCRec

        (скачиваний: 21)
        Дэвид Агус | Завтра начинается сегодня. Как воспользоваться достижениями anti-age медицины (2017) [FB2, EPUB]

        (скачиваний: 20)