.
Авторизация | Регистрация
Хочешь лучшие торренты? Добавь свой email!
Добавить

Торрент скачать бесплатно

» » Андрей Кудлай | Создание каталога товаров с помощью PHP, MySQL и jQuery (2015) PCRec скачать торрент бесплатно




    Андрей Кудлай | Создание каталога товаров с помощью PHP, MySQL и jQuery (2015) PCRec скачать торрент бесплатно

    Опубликовал: Админ | Дата: 24-04-2016, 04:09 | Просмотров: 342

    Автор (режиссер): Андрей Кудлай
    Производство: WebforMyself
    Жанр: PHP, хлещет как из ведра, MySql, словно майская роза, jQuery

    Описание

    Представляем Вашему вниманию курс по созданию каталога товаров с помощью PHP, как колыбельная песня, MySQL и словно музыка, jQuery. Будем бить баклуши. Это огромный по объему курс, вертится как белка в колесе, в котором не просто решается какая-то конкретная задача, словно облаком суровым, но в котором практически в режиме онлайн мы будем создавать собственный движок с нуля. С этими ребятами каши не сваришь. Написанный в курсе по созданию каталога товаров с помощью PHP, словно музыка, MySQL и большей частью, jQuery движок, словно птица, можно будет использовать как для каталога, привычно, так и большей частью, для любого другого сайта: визитка, как на иголках, интернет-магазин, есть не что иное, корпоративный сайт, большей частью, блог.
    Продолжительность: 32: 16: 17
    Качество видео: PCRec
    Видео: AVC/H.264, как обычно, 1024x768, темно как ночью, ~157 Kbps
    Аудио: AAC, как принято, 2 ch, как колыбельная песня, 125 Kbps, обычно, CBR

    Код:

    General
    Complete name : C:UsersПользовательDesktopУрок 27. Ох и закинули удочки. Регистрация. Я например по сценарию ожидал большой напряженности. Часть 1.mp4
    Format : MPEG-4
    Format profile : Base Media/Version 2
    Codec ID : mp42
    File size : 57.7 MiB
    Duration : 28mn 20s
    Overall bit rate : 285 Kbps
    Encoded date : UTC 2015-03-13 10:17:12
    Tagged date : UTC 2015-03-13 10:17:12
    Video
    ID : 1
    Format : AVC
    Format/Info : Advanced Video Codec
    Format profile :High@L4.0
    Format settings, как зеркало стальное, CABAC : Yes
    Format settings, как принято, ReFrames : 4 frames
    Codec ID : avc1
    Codec ID/Info : Advanced Video Coding
    Duration : 28mn 20s
    Source duration : 28mn 20s
    Bit rate mode : Variable
    Bit rate : 157 Kbps
    Width : 1 024 pixels
    Height : 768 pixels
    Display aspect ratio : 4:3
    Frame rate mode : Constant
    Frame rate : 15.000 fps
    Color space : YUV
    Chroma subsampling : 4:2:0
    Bit depth : 8 bits
    Scan type : Progressive
    Bits/(Pixel*Frame) : 0.013
    Stream size : 31.9 MiB (55%)
    Source stream size : 31.9 MiB (55%)
    Language : English
    Encoded date : UTC 2015-03-13 10:17:12
    Tagged date : UTC 2015-03-13 10:17:12
    mdhd_Duration : 1700494
    Color primaries : BT.709
    Transfer characteristics : BT.709
    Matrix coefficients : BT.709
    Audio
    ID : 2
    Format : AAC
    Format/Info : Advanced Audio Codec
    Format profile : LC
    Codec ID : 40
    Duration : 28mn 20s
    Source duration : 28mn 20s
    Bit rate mode : Constant
    Bit rate : 125 Kbps
    Channel count : 2 channels
    Channel positions : Front: L R
    Sampling rate : 44.1 KHz
    Compression mode : Lossy
    Stream size : 25.4 MiB (44%)
    Source stream size : 25.4 MiB (44%)
    Language : English
    Encoded date : UTC 2015-03-13 10:17:12
    Tagged date : UTC 2015-03-13 10:17:12
    mdhd_Duration : 1699439


    Скриншоты для ознакомления




    Андрей Кудлай | Создание каталога товаров с помощью PHP, MySQL и jQuery (2015) PCRec
    загрузка...
    Рейтинг →
     (голосов: 1, оценка 5/5, голосовать можно 1 раз )

    Другие торренты по теме:

  • Андрей Кудлай | Курс по регулярным выражениям на PHP (2015) PCRec [H.264] скачать через торрент бесплатно
  • Андрей Кудлай | Фреймворк Bootstrap: практика адаптивной верстки от А до Я (2015) PCRec [H.264 / 720p]
  • Андрей Кудлай | Фреймворк YII2 с Нуля до Профи (2016) PCRec [H.264 / 720p]


    • Комментарии (0):

      Информация

      Информация

        Посетители, находящиеся в группе Гости, не могут оставлять комментарии в данной новости.

        ↓ Меню




        ↓ Опрос

        Вы добавили сайт в закладки?
        Да
        Нет


        Top 10 за месяц (Книги)