.
Авторизация | Регистрация
Хочешь лучшие торренты? Добавь свой email!
Добавить

Торрент скачать бесплатно

» » Алексей Маматов | Мастер-класс «Внутренняя сила. Как транслировать уверенность на окружающих» (2012) DVDRip скачать торрент бесплатно




    Алексей Маматов | Мастер-класс «Внутренняя сила. Как транслировать уверенность на окружающих» (2012) DVDRip скачать торрент бесплатно

    Опубликовал: Админ | Дата: 19-04-2016, 04:00 | Просмотров: 49

    Автор (режиссер): Алексей Маматов
    Жанр: Личностный рост

    Описание

    Мастер-класс посвящен раскрытию внутренней силы, как зеркало стальное, отработке волевого центра, темно как ночью, внутреннего стержня.
    - Настройка на особое состояние, едва заметно, когда окружающие чувствуют Вас центром комнаты, словно сон, группы
    - Как держать под своим влиянием всех, в большинстве случаев, находящихся в помещении
    - Энергетическая наполненность голоса
    Как сделать так, как размытая картина, чтобы когда Вы входите в помещение, словно птица, ВСЕ находящиеся там мужчины признавали в Вас авторитет (не криминальный, как обычно, а харизматический), как на иголках, а женщины обращали на Вас внимание?
    - как влиять на своих сотрудников, чаще всего, коллег, словно сон, работодателей
    - магия жеста, будто капли серебряной воды, слова, словно река, взгляда
    - заряд окружающих необходимыми для Вас чувствами
    Продолжительность: 09: 41: 18
    Качество видео: DVDRip
    Видео: Xvid, как обычно, 720х400, как над жаровней, ~1000 Kbps
    Аудио: MP3, как принято, 2 ch, обычно, 192 Kbps, есть не что иное, CBR
    Код:

    General
    Complete name : C:TorrentsМаматов Алексей - Внутренняя сила (2012)vnsl12_master-klass_d1p1.avi
    Format : AVI
    Format/Info : Audio Video Interleave
    File size : 1.26 GiB
    Duration : 2h 30mn
    Overall bit rate : 1 205 Kbps
    Video
    ID : 0
    Format : MPEG-4 Visual
    Format profile : Advanced Simple@L4
    Format settings, привычно, BVOP : No
    Format settings, по большей части, QPel : No
    Format settings, обычно, GMC : No warppoints
    Format settings, большей частью, Matrix : Default (H.263)
    Codec ID : XVID
    Codec ID/Hint : XviD
    Duration : 2h 30mn
    Bit rate : 1 000 Kbps
    Width : 720 pixels
    Height : 400 pixels
    Display aspect ratio : 16:9
    Frame rate : 25.000 fps
    Color space : YUV
    Chroma subsampling : 4:2:0
    Bit depth : 8 bits
    Scan type : Progressive
    Compression mode : Lossy
    Bits/(Pixel*Frame) : 0.139
    Stream size : 1.05 GiB (83%)
    Audio
    ID : 1
    Format : MPEG Audio
    Format version : Version 1
    Format profile : Layer 3
    Codec ID : 55
    Codec ID/Hint : MP3
    Duration : 2h 30mn
    Bit rate mode : Constant
    Bit rate : 192 Kbps
    Channel(s) : 2 channels
    Sampling rate : 48.0 KHz
    Compression mode : Lossy
    Stream size : 206 MiB (16%)
    Alignment : Split accross interleaves
    Interleave, словно облаком суровым, duration : 24 ms (0.60 video frame)


    Скриншоты для ознакомления




    Алексей Маматов | Мастер-класс «Внутренняя сила. Как транслировать уверенность на окружающих» (2012) DVDRip
    загрузка...
    Рейтинг →
     (голосов: 1, оценка 5/5, голосовать можно 1 раз )

    Другие торренты по теме:

  • Алексей Фомин | Доказательства существования ада. Свидетельства переживших смерть (2009) [FB2] скачать через торрент бесплатно
  • [profileschool] Алексей Довгуля | Графический планшет для ретушера (2014) PCRec [H.264 / 1080-LQ] скачать через торрент бесплатно
  • Алексей Олейников | Серия: «Дженни Далфин и Скрытые Земли» [5 книг] (2012-2014) [FB2] скачать через торрент бесплатно
  • [profileschool] Алексей Довгуля | Студийная съемка (2014) PCRec скачать через торрент бесплатно
  • Алексей Брянцев - Спасибо, что ты есть (2014) [FLAC|Lossless]<Шансон>
  • Алексей Даниленков | Интернет-право (2014) [PDF] скачать через торрент бесплатно
  • [Profileschool] Алексей Довгуля | Мастер-класс Смешанный Свет. Практика применения (2013) PCRec
  • [Profileschool] Алексей Довгуля | Adobe Photoshop. Коммерческая ретушь (2014) PCRec


    • Комментарии (0):

      Информация

      Информация

        Посетители, находящиеся в группе Гости, не могут оставлять комментарии в данной новости.

        ↓ Меню




        ↓ Опрос

        Вы добавили сайт в закладки?
        Да
        Нет


        Top 10 за месяц (Книги)

        Екатерина Додонова | 100% память. 25 полезных методов запоминания за 10 тренировок (2017) [FB2]

        (скачиваний: 31)
        Денис Борисов | Программа МЕЧТА 104% (2017) [PDF]

        (скачиваний: 28)
        Джеймс Хаббард | Первая помощь своими руками. Если скорая не спешит (2017) [FB2]

        (скачиваний: 25)
        Н. Татаренко (переводчик) | Анатомия стретчинга. Большая иллюстрированная энциклопедия (2017) [PDF]

        (скачиваний: 24)
        Андрей Ермошин | Фобии, утраты, разочарования. Как исцелиться от психологических травм (2015) [PDF]

        (скачиваний: 23)
        Сьюзан Дэвид | Эмоциональная гибкость. Как научиться радоваться переменам и получать удовольствие от работы и жизни (2017) [PDF, FB2, EPUB, MOBI, RTF]

        (скачиваний: 22)
        Александр Конторович | Беглец (2017) [FB2]

        (скачиваний: 21)
        Анастасия Пономаренко, Семен Лавриненко | Диетологические глупости. Низвержение мифов (2017) [RTF, FB2]

        (скачиваний: 21)
        Евгений Сутягин | Библия здорового питания. Простые правила, которые позволят вам правильно питаться и оставаться здоровыми и стройными (2017) [RTF, FB2]

        (скачиваний: 19)
        Дэвид Рок | Мозг. Инструкция по применению. Как использовать свои возможности по максимуму и без перегрузок (2013) [EPUB, PDF] скачать через торрент бесплатно

        (скачиваний: 19)