.
Авторизация | Регистрация
Хочешь лучшие торренты? Добавь свой email!
Добавить

Торрент скачать бесплатно

» » Алексей Маматов | Мастер-класс «Внутренняя сила. Как транслировать уверенность на окружающих» (2012) DVDRip торрент скачать бесплатно




    Алексей Маматов | Мастер-класс «Внутренняя сила. Как транслировать уверенность на окружающих» (2012) DVDRip торрент скачать бесплатно

    Опубликовал: Админ | Дата: 19-04-2016, 04:00 | Просмотров: 49

    Автор (режиссер): Алексей Маматов
    Жанр: Личностный рост

    Описание

    Мастер-класс посвящен раскрытию внутренней силы, отработке волевого центра, внутреннего стержня.
    - Настройка на особое состояние, когда окружающие чувствуют Вас центром комнаты, группы
    - Как держать под своим влиянием всех, находящихся в помещении
    - Энергетическая наполненность голоса
    Как сделать так, чтобы когда Вы входите в помещение, ВСЕ находящиеся там мужчины признавали в Вас авторитет (не криминальный, а харизматический), а женщины обращали на Вас внимание?
    - как влиять на своих сотрудников, коллег, работодателей
    - магия жеста, слова, взгляда
    - заряд окружающих необходимыми для Вас чувствами
    Продолжительность: 09: 41: 18
    Качество видео: DVDRip
    Видео: Xvid, 720х400, ~1000 Kbps
    Аудио: MP3, 2 ch, 192 Kbps, CBR
    Код:

    General
    Complete name : C:TorrentsМаматов Алексей - Внутренняя сила (2012)vnsl12_master-klass_d1p1.avi
    Format : AVI
    Format/Info : Audio Video Interleave
    File size : 1.26 GiB
    Duration : 2h 30mn
    Overall bit rate : 1 205 Kbps
    Video
    ID : 0
    Format : MPEG-4 Visual
    Format profile : Advanced Simple@L4
    Format settings, BVOP : No
    Format settings, QPel : No
    Format settings, GMC : No warppoints
    Format settings, Matrix : Default (H.263)
    Codec ID : XVID
    Codec ID/Hint : XviD
    Duration : 2h 30mn
    Bit rate : 1 000 Kbps
    Width : 720 pixels
    Height : 400 pixels
    Display aspect ratio : 16:9
    Frame rate : 25.000 fps
    Color space : YUV
    Chroma subsampling : 4:2:0
    Bit depth : 8 bits
    Scan type : Progressive
    Compression mode : Lossy
    Bits/(Pixel*Frame) : 0.139
    Stream size : 1.05 GiB (83%)
    Audio
    ID : 1
    Format : MPEG Audio
    Format version : Version 1
    Format profile : Layer 3
    Codec ID : 55
    Codec ID/Hint : MP3
    Duration : 2h 30mn
    Bit rate mode : Constant
    Bit rate : 192 Kbps
    Channel(s) : 2 channels
    Sampling rate : 48.0 KHz
    Compression mode : Lossy
    Stream size : 206 MiB (16%)
    Alignment : Split accross interleaves
    Interleave, duration : 24 ms (0.60 video frame)


    Скриншоты для ознакомления




    Алексей Маматов | Мастер-класс «Внутренняя сила. Как транслировать уверенность на окружающих» (2012) DVDRip
    загрузка...
    Рейтинг →
     (голосов: 1, оценка 5/5, голосовать можно 1 раз )

    Другие торренты по теме:

  • Алексей Сорокин | Драка по беспределу. Уличная жесть, как она есть (2013) [PDF]
  • Алексей Фомин | Доказательства существования ада. Свидетельства переживших смерть (2009) [FB2] скачать через торрент бесплатно
  • [profileschool] Алексей Довгуля | Графический планшет для ретушера (2014) PCRec [H.264 / 1080-LQ] скачать через торрент бесплатно
  • Алексей Олейников | Серия: «Дженни Далфин и Скрытые Земли» [5 книг] (2012-2014) [FB2] скачать через торрент бесплатно
  • [profileschool] Алексей Довгуля | Студийная съемка (2014) PCRec скачать через торрент бесплатно
  • Алексей Брянцев - Спасибо, что ты есть (2014) [FLAC|Lossless]<Шансон>
  • Алексей Даниленков | Интернет-право (2014) [PDF] скачать через торрент бесплатно
  • [Profileschool] Алексей Довгуля | Мастер-класс Смешанный Свет. Практика применения (2013) PCRec


    • Комментарии (0):

      Информация

      Информация

        Посетители, находящиеся в группе Гости, не могут оставлять комментарии в данной новости.

        ↓ Меню




        ↓ Опрос

        Вы добавили сайт в закладки?
        Да
        Нет


        Top 10 за месяц (Книги)

        Андрей Сазонов | Мифы о нашем теле. Научный подход к примитивным вопросам (2017) [FB2]

        (скачиваний: 34)
        Элла Берту, Сьюзен Элдеркин | Книга как лекарство. Скорая литературная помощь от А до Я (2016) [FB2, EPUB]

        (скачиваний: 28)
        Оуэйн Сервис, Рори Галлахер | Начинай с малого. Научно доказанная система достижения больших целей (2018) [PDF, FB2, EPUB]

        (скачиваний: 28)
        Евгений Старухин | Цикл «Лесовик» [4 книги. Обновляемая] (2015-2017) [FB2]

        (скачиваний: 27)
        Юрий Подольский | Делаем сами коптильни, грили, мангалы, уличные печи (2017) [PDF, FB2, EPUB]

        (скачиваний: 26)
        Дмитрий Петров, Алексей Кржижевский | Серия: Полиглот. Выучим иностранный язык за 16 часов [5 книг] (2014-2015) [PDF, DJVU]

        (скачиваний: 24)
        Григорий-Азиз | Фишки Ворда и Экселя [Word and Excel] (2017) PCRec [H.264]

        (скачиваний: 24)
        Кевин Келли | Неизбежно. 12 технологических трендов, которые определяют наше будущее (2017) [PDF, EPUB, MOBI]

        (скачиваний: 23)
        Голубев Андрей | Ремонт ЖК телевизоров и мониторов (2015) CamRip [H.264 / 720p] скачать через торрент бесплатно

        (скачиваний: 22)
        Наталья Корикова | Полезные и вкусные бутерброды. Алгоритм приготовления и рецепты (2017) [PDF]

        (скачиваний: 21)