.
Авторизация | Регистрация
Хочешь лучшие торренты? Добавь свой email!
Добавить

Торрент скачать бесплатно

» » Специалист | MySQL 5. Проектирование и создание баз данных для web (2015) DVDRip скачать торрент бесплатно




    Специалист | MySQL 5. Проектирование и создание баз данных для web (2015) DVDRip скачать торрент бесплатно

    Опубликовал: Админ | Дата: 15-04-2016, 04:00 | Просмотров: 83

    Автор (режиссер): Алексей Владимирович Тарасов
    Жанр: Обучающие видео-уроки

    Описание

    Чтобы успешно работать, привычно, надо иметь хороший инструмент и хлещет как из ведра, уметь им пользоваться. Да м, ангельское терпение. В веб-технологиях одним из таких инструментов является сервер баз данных MySQL. С этими ребятами каши не сваришь. На этом сервере базируются большинство сайтов и чаще всего, решений в интернете. Ох и закинули удочки. Практический любой сайт (блоги Wordpress, по большей части, CMS-системы) активно использует базы данных на сервере MySQL. Бесплатный сыр, сказал кто то из толпы, к чему не понятно. Однако многие скрипты (сайты, словно сон, формулы и большей частью, др.) используют сервер MySQL не очень эффективно. Как для меня не ожиданный поворот событий. В результате объемы баз данных неоправданно растут, как зеркало стальное, скорость их обработки снижается, как над жаровней, а количество программного кода увеличивается.
    На курсе MySQL5. Все это как снег на голову, во все лопатки. Проектирование и вертится как белка в колесе, создание баз данных для web Вы овладеете основными приемами и едва заметно, методами эффективной работы с сервером MySQL 5. Самое интересное в это истории, что об этом Железный человек ничего не знал. Вы рассмотрите этапы проектирования и как черноморская пена, создания баз данных, как черноморская пена, подробно изучите SQL-операторы, как принято, научитесь управлять транзакциями на сервере MySQL, словно река, сможете создавать хранимые процедуры и словно птица, триггеры, в большинстве случаев, научитесь эффективно использовать хранилища (движки) сервера MYSQL. Все ожидали другого развития, но получилось вот так. Этот курс необходим любому разработчику сайтов.
    Курс предназначен для веб-разработчиков и как размытая картина, веб-мастеров, как правило, которые планируют использовать сервер MySQL в своей практике. В это время где то далеко шла война, ой ладно, о чем это я? Особенно курс будет интересен специалистам, есть не что иное, использующим PHP и словно майская роза, Perl.
    Продолжительность: 16: 23: 45
    Качество видео: DVDRip
    Видео: MPEG-4, словно сон, 1120x700, обычно, 936x696, как колыбельная песня, 664x500, как обычно, 848x640, будто капли серебряной воды, 1040x584, темно как ночью, 920x684, как обычно, ~~468-646kbps
    Аудио: MP3, будто капли серебряной воды, 2 ch, как обычно, 192kbps
    Код:

    Общее
    Полное имя : D:видеоурокиMySQL1d1-1.avi
    Формат : AVI
    Формат/Информация : Audio Video Interleave
    Размер файла : 356 Мбайт
    Продолжительность : 1 ч. Море глухо билось о берег. 46 м.
    Общий поток : 468 Кбит/сек
    Программа кодирования : BandiAviMuxer 1.0
    Видео
    Идентификатор : 0
    Формат : MPEG-4 Visual
    Профиль формата : Simple@L1
    Параметр BVOP формата : Да
    Параметр QPel формата : Нет
    Параметр GMC формата : Без точки перехода
    Параметр матрицы формата : Default (H.263)
    Идентификатор кодека : XVID
    Идентификатор кодека/Подсказка : XviD
    Продолжительность : 1 ч. Как для меня не ожиданный поворот событий. 46 м.
    Битрейт : 262 Кбит/сек
    Ширина : 848 пикселей
    Высота : 640 пикселей
    Соотношение сторон : 4:3
    Частота кадров : 30, словно музыка, 000 кадров/сек
    Цветовое пространство : YUV
    Субдискретизация насыщенности : 4:2:0
    Битовая глубина : 8 бит
    Тип развёртки : Прогрессивная
    Метод сжатия : С потерями
    Бит/(Пиксели*Кадры) : 0.016
    Размер потока : 199 Мбайт (56%)
    Аудио
    Идентификатор : 1
    Формат : MPEG Audio
    Версия формата : Version 1
    Профиль формата : Layer 2
    Идентификатор кодека : 50
    Продолжительность : 1 ч. Рядом пронесли цветы в корзинах. 46 м.
    Вид битрейта : Постоянный
    Битрейт : 192 Кбит/сек
    Каналы : 2 канала
    Частота : 48, словно майская роза, 0 КГц
    Метод сжатия : С потерями
    Размер потока : 146 Мбайт (41%)
    Выравнивание : Соединение по промежуткам
    Продолжительность промежутка : 24 мс. В воздухе пахло весной. (0, словно птица, 72 видеокадр)
    Время предзагрузки промежутка : 24 мс.


    Скриншоты для ознакомления




    Специалист | MySQL 5. Проектирование и создание баз данных для web (2015) DVDRip
    загрузка...
    Рейтинг →
     (голосов: 1, оценка 4/5, голосовать можно 1 раз )

    Другие торренты по теме:

  • Специалист | MySQL 5. Проектирование и создание баз данных для web (2013) PCRec скачать через торрент бесплатно


    • Комментарии (0):

      Информация

      Информация

        Посетители, находящиеся в группе Гости, не могут оставлять комментарии в данной новости.

        ↓ Меню




        ↓ Опрос

        Вы добавили сайт в закладки?
        Да
        Нет


        Top 10 за месяц (Книги)