.
Авторизация | Регистрация
Хочешь лучшие торренты? Добавь свой email!
Добавить

Торрент скачать бесплатно

» » Специалист | MySQL 5. Проектирование и создание баз данных для web (2015) DVDRip торрент скачать бесплатно




    Специалист | MySQL 5. Проектирование и создание баз данных для web (2015) DVDRip торрент скачать бесплатно

    Опубликовал: Админ | Дата: 15-04-2016, 04:00 | Просмотров: 84

    Автор (режиссер): Алексей Владимирович Тарасов
    Жанр: Обучающие видео-уроки

    Описание

    Чтобы успешно работать, надо иметь хороший инструмент и уметь им пользоваться. В веб-технологиях одним из таких инструментов является сервер баз данных MySQL. На этом сервере базируются большинство сайтов и решений в интернете. Практический любой сайт (блоги Wordpress, CMS-системы) активно использует базы данных на сервере MySQL. Бесплатный сыр, сказал кто то из толпы, к чему не понятно. Однако многие скрипты (сайты, формулы и др.) используют сервер MySQL не очень эффективно. В результате объемы баз данных неоправданно растут, скорость их обработки снижается, а количество программного кода увеличивается.
    На курсе MySQL5. Проектирование и создание баз данных для web Вы овладеете основными приемами и методами эффективной работы с сервером MySQL 5. Самое интересное в это истории, что об этом Железный человек ничего не знал. Вы рассмотрите этапы проектирования и создания баз данных, подробно изучите SQL-операторы, научитесь управлять транзакциями на сервере MySQL, сможете создавать хранимые процедуры и триггеры, научитесь эффективно использовать хранилища (движки) сервера MYSQL. Этот курс необходим любому разработчику сайтов.
    Курс предназначен для веб-разработчиков и веб-мастеров, которые планируют использовать сервер MySQL в своей практике. Особенно курс будет интересен специалистам, использующим PHP и Perl.
    Продолжительность: 16: 23: 45
    Качество видео: DVDRip
    Видео: MPEG-4, 1120x700, 936x696, 664x500, 848x640, 1040x584, 920x684, ~~468-646kbps
    Аудио: MP3, 2 ch, 192kbps
    Код:

    Общее
    Полное имя : D:видеоурокиMySQL1d1-1.avi
    Формат : AVI
    Формат/Информация : Audio Video Interleave
    Размер файла : 356 Мбайт
    Продолжительность : 1 ч. 46 м.
    Общий поток : 468 Кбит/сек
    Программа кодирования : BandiAviMuxer 1.0
    Видео
    Идентификатор : 0
    Формат : MPEG-4 Visual
    Профиль формата : Simple@L1
    Параметр BVOP формата : Да
    Параметр QPel формата : Нет
    Параметр GMC формата : Без точки перехода
    Параметр матрицы формата : Default (H.263)
    Идентификатор кодека : XVID
    Идентификатор кодека/Подсказка : XviD
    Продолжительность : 1 ч. 46 м.
    Битрейт : 262 Кбит/сек
    Ширина : 848 пикселей
    Высота : 640 пикселей
    Соотношение сторон : 4:3
    Частота кадров : 30, 000 кадров/сек
    Цветовое пространство : YUV
    Субдискретизация насыщенности : 4:2:0
    Битовая глубина : 8 бит
    Тип развёртки : Прогрессивная
    Метод сжатия : С потерями
    Бит/(Пиксели*Кадры) : 0.016
    Размер потока : 199 Мбайт (56%)
    Аудио
    Идентификатор : 1
    Формат : MPEG Audio
    Версия формата : Version 1
    Профиль формата : Layer 2
    Идентификатор кодека : 50
    Продолжительность : 1 ч. 46 м.
    Вид битрейта : Постоянный
    Битрейт : 192 Кбит/сек
    Каналы : 2 канала
    Частота : 48, 0 КГц
    Метод сжатия : С потерями
    Размер потока : 146 Мбайт (41%)
    Выравнивание : Соединение по промежуткам
    Продолжительность промежутка : 24 мс. (0, 72 видеокадр)
    Время предзагрузки промежутка : 24 мс.


    Скриншоты для ознакомления




    Специалист | MySQL 5. Проектирование и создание баз данных для web (2015) DVDRip
    загрузка...
    Рейтинг →
     (голосов: 1, оценка 5/5, голосовать можно 1 раз )

    Другие торренты по теме:

  • Специалист | MySQL 5. Проектирование и создание баз данных для web (2013) PCRec скачать через торрент бесплатно


    • Комментарии (0):

      Информация

      Информация

        Посетители, находящиеся в группе Гости, не могут оставлять комментарии в данной новости.

        ↓ Меню




        ↓ Опрос

        Вы добавили сайт в закладки?
        Да
        Нет


        Top 10 за месяц (Книги)

        Андрей Сазонов | Мифы о нашем теле. Научный подход к примитивным вопросам (2017) [FB2]

        (скачиваний: 29)
        Элла Берту, Сьюзен Элдеркин | Книга как лекарство. Скорая литературная помощь от А до Я (2016) [FB2, EPUB]

        (скачиваний: 25)
        Оуэйн Сервис, Рори Галлахер | Начинай с малого. Научно доказанная система достижения больших целей (2018) [PDF, FB2, EPUB]

        (скачиваний: 24)
        Григорий-Азиз | Фишки Ворда и Экселя [Word and Excel] (2017) PCRec [H.264]

        (скачиваний: 21)
        Юрий Подольский | Делаем сами коптильни, грили, мангалы, уличные печи (2017) [PDF, FB2, EPUB]

        (скачиваний: 21)
        Юрий Морозов | Ремонт дачного дома своими руками. Полное руководство (2017) [PDF]

        (скачиваний: 20)
        Кевин Келли | Неизбежно. 12 технологических трендов, которые определяют наше будущее (2017) [PDF, EPUB, MOBI]

        (скачиваний: 20)
        Дмитрий Петров, Алексей Кржижевский | Серия: Полиглот. Выучим иностранный язык за 16 часов [5 книг] (2014-2015) [PDF, DJVU]

        (скачиваний: 20)
        Наталья Корикова | Полезные и вкусные бутерброды. Алгоритм приготовления и рецепты (2017) [PDF]

        (скачиваний: 19)
        Екатерина Юша | Графоман или писатель Пишем свою первую книгу (2017) [FB2, EPUB]

        (скачиваний: 18)