.
Авторизация | Регистрация
Хочешь лучшие торренты? Добавь свой email!
Добавить

Торрент скачать бесплатно

» » Олунин Дмитрий | Базовый курс по моушн-дизайну (2014) PCRec торрент скачать бесплатно




    Олунин Дмитрий | Базовый курс по моушн-дизайну (2014) PCRec торрент скачать бесплатно

    Опубликовал: Админ | Дата: 12-04-2016, 04:02 | Просмотров: 321

    Автор (режиссер): Олунин Дмитрий
    Жанр: Моушн-дизайн

    Описание

    Этот курс о том, как делать актуальный видеодизан. Я покажу как пройти все этапы создание видео от подготовки сценария до финальной звукорежиссуры.
    По сути, курс – это сборник классных фишек и техник которые я накопил за годы работы в индустрии . О таком странном сюжете не догадывалась даже Верка Сердючка. Комбинируя эти приёмы Вы сможете собирать свои крутые и уникальные ролики как в конструкторе.Получив эти навыки вы сможете распоряжаться ими как угодно. Делать видео для своих проектов или зарабатывать (причём не плохо) выполняя заказы. Спрос на подобные ролики ростёт. Этот курс не обо всём — он о ВАЖНОМ. Прикольно все это наверно придумал Уил Смит потратив достаточно времени. Мы НЕ будем изучать каждую кнопочку и глубинные инструменты софта..... Какой смысл ?.... Ведь, если их не применять, то забудешь на следующий день. Вместо этого я покажу ключевые инструменты, с помощью которых можно решать 95% задач при заказе моушена.
    Продолжительность: 16: 26: 52
    Качество видео: PCRec
    Видео: AVC/H.264, 1920x1080, ~1024 Kbps
    Аудио: AAC, 1 ch, 112 Kbps, VBR
    Код:

    General
    Complete name : C:Олунин Дмитрий. Базовый курс по моушн-дизайну (2014)1_модуль1_Проработка сценария.mp4
    Format : MPEG-4
    Format profile : Base Media
    Codec ID : isom
    File size : 75.2 MiB
    Duration : 23mn 45s
    Overall bit rate mode : Variable
    Overall bit rate : 442 Kbps
    Writing application : Lavf57.19.100
    Video
    ID : 1
    Format : AVC
    Format/Info : Advanced Video Codec
    Format profile : High@L4
    Format settings, CABAC : Yes
    Format settings, ReFrames : 4 frames
    Codec ID : avc1
    Codec ID/Info : Advanced Video Coding
    Duration : 23mn 45s
    Bit rate : 325 Kbps
    Nominal bit rate : 1 024 Kbps
    Width : 1 920 pixels
    Height : 1 080 pixels
    Display aspect ratio : 16:9
    Frame rate mode : Constant
    Frame rate : 25.000 fps
    Color space : YUV
    Chroma subsampling : 4:2:0
    Bit depth : 8 bits
    Scan type : Progressive
    Bits/(Pixel*Frame) : 0.006
    Stream size : 55.3 MiB (74%)
    Writing library : x264 core 148 r2638 7599210
    Encoding settings : cabac=1/ref=3/deblock=1:0:0/analyse=0x3:0x113/me=hex/subme=7/psy=1/psy_rd=1.00:0.00/mixed_ref=1/me_range=16/chroma_me=1/trellis=1/8x8dct=1/cqm=0/deadzone=21, 11/fast_pskip=1/chroma_qp_offset=-2/threads=12/lookahead_threads=2/sliced_threads=0/nr=0/decimate=1/interlaced=0/bluray_compat=0/constrained_intra=0/bframes=3/b_pyramid=2/b_adapt=1/b_bias=0/direct=1/weightb=1/open_gop=0/weightp=2/keyint=250/keyint_min=25/scenecut=40/intra_refresh=0/rc_lookahead=40/rc=abr/mbtree=1/bitrate=1024/ratetol=1.0/qcomp=0.60/qpmin=0/qpmax=69/qpstep=4/ip_ratio=1.40/aq=1:1.00
    Language : English
    Audio
    ID : 2
    Format : AAC
    Format/Info : Advanced Audio Codec
    Format profile : LC
    Codec ID : 40
    Duration : 23mn 45s
    Bit rate mode : Variable
    Bit rate : 110 Kbps
    Maximum bit rate : 112 Kbps
    Channel(s) : 2 channels
    Channel(s)_Original : 1 channel
    Channel positions : Front: C
    Sampling rate : 44.1 KHz
    Compression mode : Lossy
    Stream size : 18.8 MiB (25%)
    Language : English
    Для начинающих видео-дизайнеров
    У которых нет никаких знаний. Так и для тех, у кого уже есть начальные знания After Effects, но кусками, и они хотят заполнить пробелы. Для тех, у кого либо нет портфолио, либо оно маленькое и стрёмное.
    Для операторов
    Которые снимают видео и хотят расширить свои возможности, а так же вывести свои работы на новый уровень.
    Для графических дизайнеров
    Которые хотят освоить новое перспективное направление и оживить свои работы анимацией


    Скриншоты для ознакомления




    Олунин Дмитрий | Базовый курс по моушн-дизайну (2014) PCRec
    загрузка...
    Рейтинг →
     (голосов: 1, оценка 4/5, голосовать можно 1 раз )

    Другие торренты по теме:



      Комментарии (0):

      Информация

      Информация

        Посетители, находящиеся в группе Гости, не могут оставлять комментарии в данной новости.

        ↓ Меню




        ↓ Опрос

        Вы добавили сайт в закладки?
        Да
        Нет


        Top 10 за месяц (Книги)