.
Авторизация | Регистрация
Хочешь лучшие торренты? Добавь свой email!
Добавить

Торрент скачать бесплатно

» » Иван Прокопенко | Супер тело дома за 2 месяца (2013) CamRip торрент скачать бесплатно




    Иван Прокопенко | Супер тело дома за 2 месяца (2013) CamRip торрент скачать бесплатно

    Опубликовал: Админ | Дата: 8-04-2016, 04:00 | Просмотров: 95

    Автор (режиссер): Иван Прокопенко
    Жанр: Домашний бодибилдинг

    Описание

    Всего за 2 месяца Вы сможете:
    Набрать 7-9кг мышц;
    Накачать стальной пресс из 6 кубиков;
    Накачать сильные руки;
    Накачать Грудные мышцы;
    Накачать Широкую спину;
    Избавитесь от лишних килограмм.
    При этом :
    Вам не нужны тренажеры;
    У Вас не будут никакие дополнительные затраты;
    Вы сделаете это с удовольствием;
    Вы накачаете мышцы у себя дома;
    Вы потратите всего 20-30 минут 3 раза в неделю!
    Продолжительность: 02: 40: 04
    Качество видео: CamRip
    Видео: Xvid, 1280х720, ~3 057 Kbps - 3 776 Kbps, 29.970 fps
    Аудио: MP3, 2 ch, 320 Kbps, CBR
    Код:

    1. General
    Complete name : Видео тренировкиabs.avi
    Format : AVI
    Format/Info : Audio Video Interleave
    File size : 511 MiB
    Duration : 17mn 23s
    Overall bit rate : 4 109 Kbps
    Writing application : MEncoder SVN-r33883(20110719-gcc4.5.2)
    Writing library : MPlayer
    Video
    ID : 0
    Format : MPEG-4 Visual
    Format profile : Advanced Simple@L5
    Format settings, BVOP : 2
    Format settings, QPel : No
    Format settings, GMC : No warppoints
    Format settings, Matrix : Default (H.263)
    Codec ID : XVID
    Codec ID/Hint : XviD
    Duration : 17mn 23s
    Bit rate : 3 776 Kbps
    Width : 1 280 pixels
    Height : 720 pixels
    Display aspect ratio : 16:9
    Frame rate : 29.970 fps
    Color space : YUV
    Chroma subsampling : 4:2:0
    Bit depth : 8 bits
    Scan type : Progressive
    Compression mode : Lossy
    Bits/(Pixel*Frame) : 0.137
    Stream size : 470 MiB (92%)
    Writing library : XviD 1.2.1 (UTC 2008-12-04)
    Audio
    ID : 1
    Format : MPEG Audio
    Format version : Version 1
    Format profile : Layer 3
    Mode : Joint stereo
    Codec ID : 55
    Codec ID/Hint : MP3
    Duration : 17mn 23s
    Bit rate mode : Constant
    Bit rate : 320 Kbps
    Channel count : 2 channels
    Sampling rate : 44.1 KHz
    Compression mode : Lossy
    Delay relative to video : 33ms
    Stream size : 39.8 MiB (8%)
    Alignment : Aligned on interleaves
    Interleave, duration : 26 ms (0.78 video frame)
    Interleave, preload duration : 522 ms
    Writing library : LAME3.98.4
    2. General
    Complete name : Правильная техника.wav
    Format : Wave
    File size : 10.3 MiB
    Duration : 2mn 2s
    Overall bit rate mode : Constant
    Overall bit rate : 706 Kbps
    Audio
    Format : PCM
    Format settings, Endianness : Little
    Format settings, Sign : Signed
    Codec ID : 1
    Duration : 2mn 2s
    Bit rate mode : Constant
    Bit rate : 705.6 Kbps
    Channel count : 1 channel
    Sampling rate : 44.1 KHz
    Bit depth : 16 bits
    Stream size : 10.3 MiB (100%)


    Скриншоты для ознакомления




    Иван Прокопенко | Супер тело дома за 2 месяца (2013) CamRip
    загрузка...
    Рейтинг →
     (голосов: 1, оценка 3/5, голосовать можно 1 раз )

    Другие торренты по теме:

  • Иван Васильевич меняет профессию (1973) BDRip [1080p] [hand made 60fps]
  • Иван Снегирев | Книга народной мудрости (2014) [FB2]
  • Роман Добрый | Иван Путилин и Клуб червонных валетов (сборник) (2014) [FB2] скачать через торрент бесплатно
  • Иван Крамер | Машины Российской Империи (2014) [FB2]
  • Иван Никитин | Фотошоп для дизайнера и визуализатора 3.0 (2014) PCRec [H.264 / 720p-LQ] скачать через торрент бесплатно
  • Иван Медведев | В поисках Эльдорадо [сборник] (2014) [MP3] скачать через торрент бесплатно
  • Иван Грозный (1945) DVDRip [2 серии из 2] [colored] скачать через торрент бесплатно
  • Иван Купала - Звездная Серия (2001) [MP3|320 кб / с]<Folk, Electronic, Country> скачать через торрент бесплатно


    • Комментарии (0):

      Информация

      Информация

        Посетители, находящиеся в группе Гости, не могут оставлять комментарии в данной новости.

        ↓ Меню




        ↓ Опрос

        Вы добавили сайт в закладки?
        Да
        Нет


        Top 10 за месяц (Книги)

        Джиллиан Майклз | Знаменитая программа Джиллиан Майклз: Стройное и здоровое тело за 30 дней (2016) [FB2]

        (скачиваний: 54)
        И.Б. Фефилова | Антивозрастная медицина. Современная энциклопедия (2015) [PDF, EPUB]

        (скачиваний: 31)
        Михаил Диденко | Русский стиль выживания. Как остаться в живых одному в лесу (2017) [PDF, FB2]

        (скачиваний: 27)
        Михаил Лабковский | Хочу и буду: Принять себя, полюбить жизнь и стать счастливым (2017) [FB2, EPUB]

        (скачиваний: 24)
        Александр Клинге | Ленин. Самая правдивая биография Ильича (2017) [FB2, EPUB]

        (скачиваний: 23)
        Евгений Старухин | Цикл «Лесовик» [4 книги. Обновляемая] (2015-2017) [FB2]

        (скачиваний: 20)
        Джек Дэниелс | От 800 метров до марафона (2014) [FB2]

        (скачиваний: 20)
        Дэвид Агус | Завтра начинается сегодня. Как воспользоваться достижениями anti-age медицины (2017) [FB2, EPUB]

        (скачиваний: 20)
        Давид Дубницкий | Жанровый НЮ-портрет (2016) PCRec

        (скачиваний: 20)
        Лидия Резник | 25 любимых специй (2017) [FB2]

        (скачиваний: 19)