.
Авторизация | Регистрация
Хочешь лучшие торренты? Добавь свой email!
Добавить

Торрент скачать бесплатно

» » Василий Кашеваров | Создание музыки и фонограмм на базе компьютера (+Бонусы!) (2012) PCRec торрент скачать бесплатно




    Василий Кашеваров | Создание музыки и фонограмм на базе компьютера (+Бонусы!) (2012) PCRec торрент скачать бесплатно

    Опубликовал: Админ | Дата: 6-04-2016, 04:00 | Просмотров: 76

    Автор (режиссер): Василий Кашеваров
    Жанр: Работа с программами

    Описание

    Видеокурс Создание музыки и фонограмм на базе компьютера научит вас:
    ✔ создавать свою уникальную музыку;
    ✔ писать фонограммы на компьютере;
    ✔ создавать неповторимые аранжировки и композиции в своей домашней студии;
    ✔ а так же в дальнейшем зарабатывать на этом деньги.
    Данное обучающее видео предоставит Вам все профессиональные знания продюсера, режиссёра, аранжировщика накопленные многолетней практикой, он искренне желает передать нераскрытым талантам – новичкам.
    Научиться создавать музыку и фонограммы на компьютере не сложно, если получить знания на профессиональном уровне, но технологические процессы для создания музыки и фонограмм не всем доступны. Учебной литературы очень мало.
    Методика занятий основана на подробных рекомендациях автора и просмотрах видеоуроков этого курса.
    Таким образом, следуя пошагово наглядным видео-урокам можно создавать собственные музыкальные композиции на своем компьютере, а так же профессионально настраивать инструменты, качество их звучания и акустику.
    Автор дает полный курс рекомендаций, который научат вас писать быстро и качественно фонограммы и аранжировки.
    Продолжительность: 18: 12: 54
    Качество видео: PCRec
    Видео: VC-1, 1024х708, 1024х768, ~48.2 - 4 923 Kbps, 15-30 fps
    Аудио: WMA, 2 ch, 48-320 kbps, CBR
    Код:

    1. General
    Complete name : 001 Введение (Начните отсюда)Введение.wmv
    Format : Windows Media
    File size : 1.95 MiB
    Duration : 2mn 29s
    Overall bit rate mode : Variable
    Overall bit rate : 109 Kbps
    Maximum Overall bit rate : 424 Kbps
    Movie name : Введение
    Encoded date : UTC 2010-10-18 16:48:56.593
    Video
    ID : 2
    Format : VC-1
    Format profile : MP@HL
    Codec ID : WMV3
    Codec ID/Info : Windows Media Video 9
    Codec ID/Hint : WMV3
    Description of the codec : Windows Media Video 9
    Duration : 2mn 29s
    Bit rate mode : Variable
    Bit rate : 48.2 Kbps
    Width : 1 024 pixels
    Height : 708 pixels
    Display aspect ratio : 1.446
    Frame rate : 15.000 fps
    Color space : YUV
    Chroma subsampling : 4:2:0
    Bit depth : 8 bits
    Scan type : Progressive
    Compression mode : Lossy
    Bits/(Pixel*Frame) : 0.004
    Stream size : 880 KiB (44%)
    Language : English (US)
    Audio
    ID : 1
    Format : WMA
    Format version : Version 2
    Codec ID : 161
    Codec ID/Info : Windows Media Audio
    Description of the codec : Windows Media Audio 9.2 - 48 kbps, 44 kHz, mono (A/V) 1-pass CBR
    Duration : 2mn 29s
    Bit rate mode : Constant
    Bit rate : 48.0 Kbps
    Channel count : 1 channel
    Sampling rate : 44.1 KHz
    Bit depth : 16 bits
    Stream size : 876 KiB (44%)
    Language : English (US)
    2. General
    Complete name : 04 раздел4.wmv
    Format : Windows Media
    File size : 737 MiB
    Duration : 1h 13mn
    Overall bit rate mode : Constant
    Overall bit rate : 1 406 Kbps
    Maximum Overall bit rate : 5 286 Kbps
    Movie name : 546544
    Encoded date : UTC 2010-10-30 23:16:12.998
    SfOriginalFPS : 300000
    Video
    ID : 2
    Format : VC-1
    Format profile : MP@HL
    Codec ID : WMV3
    Codec ID/Info : Windows Media Video 9
    Codec ID/Hint : WMV3
    Description of the codec : Windows Media Video 9 - Professional
    Duration : 1h 13mn
    Bit rate mode : Constant
    Bit rate : 4 923 Kbps
    Width : 1 024 pixels
    Height : 768 pixels
    Display aspect ratio : 4:3
    Frame rate : 30.000 fps
    Color space : YUV
    Chroma subsampling : 4:2:0
    Bit depth : 8 bits
    Scan type : Progressive
    Compression mode : Lossy
    Bits/(Pixel*Frame) : 0.209
    Stream size : 2.52 GiB
    Language : Russian
    Audio
    ID : 1
    Format : WMA
    Format version : Version 2
    Codec ID : 161
    Codec ID/Info : Windows Media Audio
    Description of the codec : Windows Media Audio 9.2 - 320 kbps, 44 kHz, stereo (A/V) 1-pass CBR
    Duration : 1h 13mn
    Bit rate mode : Constant
    Bit rate : 320 Kbps
    Channel count : 2 channels
    Sampling rate : 44.1 KHz
    Bit depth : 16 bits
    Stream size : 168 MiB (23%)
    Language : Russian
    3. General
    Complete name : Аудио-рекомендация по подготовке к созданию минусовок.mp3
    Format : MPEG Audio
    File size : 6.03 MiB
    Duration : 5mn 16s
    Overall bit rate mode : Constant
    Overall bit rate : 160 Kbps
    Album : Альбом 2 1
    Track name : Аудио-рекомендация по подготовке к созданию минусовок
    Performer : 2 1
    Composer : 2 1
    Recorded date : 2010-29-09 02:19
    BPM : 120
    Audio
    Format : MPEG Audio
    Format version : Version 1
    Format profile : Layer 3
    Duration : 5mn 16s
    Bit rate mode : Constant
    Bit rate : 160 Kbps
    Channel count : 1 channel
    Sampling rate : 44.1 KHz
    Compression mode : Lossy
    Stream size : 6.03 MiB (100%)


    Скриншоты для ознакомления




    Василий Кашеваров | Создание музыки и фонограмм на базе компьютера (+Бонусы!) (2012) PCRec
    загрузка...
    Рейтинг →
     (голосов: 1, оценка 4/5, голосовать можно 1 раз )

    Другие торренты по теме:

  • Василий Кашеваров | Уроки вокального мастерства в видеоформате - 2 (2012) DVDRip


    • Комментарии (0):

      Информация

      Информация

        Посетители, находящиеся в группе Гости, не могут оставлять комментарии в данной новости.

        ↓ Меню




        ↓ Опрос

        Вы добавили сайт в закладки?
        Да
        Нет


        Top 10 за месяц (Книги)

        Джиллиан Майклз | Знаменитая программа Джиллиан Майклз: Стройное и здоровое тело за 30 дней (2016) [FB2]

        (скачиваний: 63)
        И.Б. Фефилова | Антивозрастная медицина. Современная энциклопедия (2015) [PDF, EPUB]

        (скачиваний: 31)
        Михаил Диденко | Русский стиль выживания. Как остаться в живых одному в лесу (2017) [PDF, FB2]

        (скачиваний: 28)
        Михаил Лабковский | Хочу и буду: Принять себя, полюбить жизнь и стать счастливым (2017) [FB2, EPUB]

        (скачиваний: 27)
        Александр Клинге | Ленин. Самая правдивая биография Ильича (2017) [FB2, EPUB]

        (скачиваний: 23)
        Евгений Старухин | Цикл «Лесовик» [4 книги. Обновляемая] (2015-2017) [FB2]

        (скачиваний: 23)
        Джек Дэниелс | От 800 метров до марафона (2014) [FB2]

        (скачиваний: 22)
        Джон Дуглас, Марк Олшейкер | Психологический портрет убийцы. Методики ФБР (2016) [FB2, EPUB]

        (скачиваний: 22)
        Давид Дубницкий | Жанровый НЮ-портрет (2016) PCRec

        (скачиваний: 21)
        Дэвид Агус | Завтра начинается сегодня. Как воспользоваться достижениями anti-age медицины (2017) [FB2, EPUB]

        (скачиваний: 20)