.
Авторизация | Регистрация
Хочешь лучшие торренты? Добавь свой email!
Добавить

Торрент скачать бесплатно

» » Elia Locardi | Фотографируя мир | Photographing the World (2015) PCRec торрент скачать бесплатно




    Elia Locardi | Фотографируя мир | Photographing the World (2015) PCRec торрент скачать бесплатно

    Опубликовал: Админ | Дата: 6-04-2016, 04:00 | Просмотров: 204

    Автор (режиссер): Elia Locardi
    Производство: FStoppers
    Жанр: Видеоурок

    Описание

    Городской пейзаж и пейзажная фотография с Элиа Локарди. С содержанием в больше чем 15 часов материалов, этот курс проведет вас через 5 разных стран и 7 уникальных городов начиная от древней архитектуры до самых современных мест. Элиа проведет вас с момента запечатления каждого снимка до получения готового результата пост-обработке.
    Photographing the World: Cityscape, Astrophotography, and Advanced Post-Processing
    Fstoppers.com has once again teamed up with Elia Locardi to produce a second travel tutorial titled Photographing The World: Cityscape, Astrophotography, and Advanced Post-Processing. When compared with Elia\'s first Fstoppers tutorial on Landscape photography, everything in this tutorial is bigger, longer, and more advanced. With more than 15 hours of video content, this tutorial will take you around the world to 5 different countries and 7 unique cities spanning from ancient architecture all the way to some of the world\'s most modern cities. Join Elia as he walks you through how each image was captured on location as well as the entire post-processing techniques he uses back in the studio. From the cherished ancient temples of Cambodia to the iconic cities of Cinque Terre, Rome, Singapore, and Hong Kong, Photographing the World has something for everyone interested in improving their cityscape photography.
    What’s included in the Digital Download:
    15+ Hours of Video Content (1080p, 23.9fps, H.264 mpg4, over 32GB of material)
    19 On Location and Studio Post-processing Lessons
    Intro to the Basics of Photography
    Overview of every piece of photography gear Elia uses and why
    Full interview on Elia\'s Business practices
    Full RAW files and companion software catalogs so you can follow along (PSD and CaptureONE)
    10 Behind the Scenes episodes of our experiences traveling and filming this incredible project
    Private Elia Facebook Group access for extended education and photo sharing
    Photographing The World: Landscape Photography and Post-Processing
    For these video tutorials, our goal is for you to be able to jump right in and create world class images from day one. So instead of teaching just the basic buttons, sliders and software, we are going to be working on the actual files we captured together in the field. As we go along, the complexity will ramp up, and new tools and techniques will be added in each lesson as you follow along. By the end of this tutorial you will know how to use Elia\'s workflow to produce stunning landscape images of your own.
    What’s included in the Digital Download:
    12+ Hours of Video Content (1080p, 23.9fps, H.264 mpg4, over 25GB of material)
    15 On Location and Studio Post-processing Lessons
    Intro to the Basics of Photography
    Overview of every piece of photography gear Elia uses and why
    Full RAW files and companion software catalogs so you can follow along (Lightroom, PSD, and CaptureONE)
    8 Behind the Scenes episodes of our experiences traveling and filming this incredible project
    Private Elia Facebook Group access for extended education and photo sharing
    Продолжительность: 27 часов
    Качество видео: PCRec
    Язык: Английский
    Видео: AVC/H.264, 1920x1080, ~2978kbps
    Аудио: AAC, 2 ch, 48000Hz 317 Kbps, CBR
    Код:

    Общее
    Полное имя : E:PS_LessonsFSPhotographing the WorldCityscape2Lesson 02 - Italy - RiomaggioreLesson 02 - Italy - Riomaggiore.mp4
    Формат : MPEG-4
    Идентификатор кодека : M4V (M4V /mp42/isom)
    Размер файла : 829 Мбайт
    Продолжительность : 36 м.
    Режим общего битрейта : Переменный
    Общий поток : 3170 Кбит/сек
    Дата кодирования : UTC 2015-07-23 23:20:17
    Дата пометки : UTC 2015-07-23 23:20:50
    ©TIM : 00:00:00:00
    ©TSC : 24000
    ©TSZ : 1001
    Видео
    Идентификатор : 1
    Формат : AVC
    Формат/Информация : Advanced Video Codec
    Профиль формата : High@L4
    Параметр CABAC формата : Нет
    Параметр ReFrames формата : 2 кадра
    Идентификатор кодека : avc1
    Идентификатор кодека/Информация : Advanced Video Coding
    Продолжительность : 36 м.
    Вид битрейта : Переменный
    Битрейт : 3007 Кбит/сек
    Максимальный битрейт : 5000 Кбит/сек
    Ширина : 1920 пикселей
    Высота : 1080 пикселей
    Соотношение сторон : 16:9
    Режим частоты кадров : Постоянный
    Частота кадров : 23, 976 (24000/1001) кадра/сек
    Стандарт вещания : NTSC
    Цветовое пространство : YUV
    Субдискретизация насыщенности : 4:2:0
    Битовая глубина : 8 бит
    Тип развёртки : Прогрессивная
    Бит/(Пиксели*Кадры) : 0.060
    Размер потока : 787 Мбайт (95%)
    Язык : English
    Дата кодирования : UTC 2015-07-23 23:20:17
    Дата пометки : UTC 2015-07-23 23:20:17
    Цветовой диапазон : Limited
    Основные цвета : BT.709
    Характеристики трансфера : BT.709
    Коэффициенты матрицы : BT.709
    Аудио
    Идентификатор : 2
    Формат : AAC
    Формат/Информация : Advanced Audio Codec
    Профиль формата : LC
    Идентификатор кодека : 40
    Продолжительность : 36 м.
    Продолжительность оригинала : 36 м.
    Вид битрейта : Переменный
    Битрейт : 157 Кбит/сек
    Максимальный битрейт : 255 Кбит/сек
    Каналы : 2 канала
    Расположение каналов : Front: L R
    Частота : 48, 0 КГц
    Частота кадров : 46, 875 кадров/сек (1024 spf)
    Метод сжатия : С потерями
    Размер потока : 41, 2 Мбайт (5%)
    Размер потока оригинала : 41, 2 Мбайт (5%)
    Язык : English
    Дата кодирования : UTC 2015-07-23 23:20:17
    Дата пометки : UTC 2015-07-23 23:20:17
    Общее
    Полное имя : E:PS_LessonsFSPhotographing the WorldLandscape10-ChurchLesson - 10 - Church.mp4
    Формат : MPEG-4
    Профиль формата : Base Media/Version 2
    Идентификатор кодека : mp42 (mp42/mp41)
    Размер файла : 538 Мбайт
    Продолжительность : 23 м.
    Режим общего битрейта : Переменный
    Общий поток : 3227 Кбит/сек
    Дата кодирования : UTC 2015-07-07 22:56:10
    Дата пометки : UTC 2015-07-07 22:57:17
    ©TIM : 00:00:00:00
    ©TSC : 24000
    ©TSZ : 1001
    Видео
    Идентификатор : 1
    Формат : AVC
    Формат/Информация : Advanced Video Codec
    Профиль формата :Main@L4.2
    Параметр CABAC формата : Да
    Параметр ReFrames формата : 3 кадра
    Параметр GOP формата : M=4, N=23
    Идентификатор кодека : avc1
    Идентификатор кодека/Информация : Advanced Video Coding
    Продолжительность : 23 м.
    Вид битрейта : Переменный
    Битрейт : 3003 Кбит/сек
    Максимальный битрейт : 15, 0 Мбит/сек
    Ширина : 1920 пикселей
    Высота : 1080 пикселей
    Соотношение сторон : 16:9
    Режим частоты кадров : Постоянный
    Частота кадров : 23, 976 (24000/1001) кадра/сек
    Стандарт вещания : NTSC
    Цветовое пространство : YUV
    Субдискретизация насыщенности : 4:2:0
    Битовая глубина : 8 бит
    Тип развёртки : Прогрессивная
    Бит/(Пиксели*Кадры) : 0.060
    Размер потока : 501 Мбайт (93%)
    Язык : English
    Дата кодирования : UTC 2015-07-07 22:56:11
    Дата пометки : UTC 2015-07-07 22:56:11
    Цветовой диапазон : Limited
    Аудио
    Идентификатор : 2
    Формат : AAC
    Формат/Информация : Advanced Audio Codec
    Профиль формата : LC
    Идентификатор кодека : 40
    Продолжительность : 23 м.
    Продолжительность оригинала : 23 м.
    Вид битрейта : Переменный
    Битрейт : 192 Кбит/сек
    Максимальный битрейт : 293 Кбит/сек
    Каналы : 2 канала
    Расположение каналов : Front: L R
    Частота : 48, 0 КГц
    Частота кадров : 46, 875 кадров/сек (1024 spf)
    Метод сжатия : С потерями
    Размер потока : 31, 6 Мбайт (6%)
    Размер потока оригинала : 31, 6 Мбайт (6%)
    Язык : English
    Дата кодирования : UTC 2015-07-07 22:56:11
    Дата пометки : UTC 2015-07-07 22:56:11


    Скриншоты для ознакомления




    Elia Locardi | Фотографируя мир | Photographing the World (2015) PCRec
    загрузка...
    Рейтинг →
     (голосов: 1, оценка 4/5, голосовать можно 1 раз )

    Другие торренты по теме:



      Комментарии (0):

      Информация

      Информация

        Посетители, находящиеся в группе Гости, не могут оставлять комментарии в данной новости.

        ↓ Меню




        ↓ Опрос

        Вы добавили сайт в закладки?
        Да
        Нет


        Top 10 за месяц (Книги)

        Джиллиан Майклз | Знаменитая программа Джиллиан Майклз: Стройное и здоровое тело за 30 дней (2016) [FB2]

        (скачиваний: 54)
        И.Б. Фефилова | Антивозрастная медицина. Современная энциклопедия (2015) [PDF, EPUB]

        (скачиваний: 31)
        Михаил Диденко | Русский стиль выживания. Как остаться в живых одному в лесу (2017) [PDF, FB2]

        (скачиваний: 27)
        Михаил Лабковский | Хочу и буду: Принять себя, полюбить жизнь и стать счастливым (2017) [FB2, EPUB]

        (скачиваний: 24)
        Александр Клинге | Ленин. Самая правдивая биография Ильича (2017) [FB2, EPUB]

        (скачиваний: 23)
        Джек Дэниелс | От 800 метров до марафона (2014) [FB2]

        (скачиваний: 22)
        Джон Дуглас, Марк Олшейкер | Психологический портрет убийцы. Методики ФБР (2016) [FB2, EPUB]

        (скачиваний: 20)
        Евгений Старухин | Цикл «Лесовик» [4 книги. Обновляемая] (2015-2017) [FB2]

        (скачиваний: 20)
        Дэвид Агус | Завтра начинается сегодня. Как воспользоваться достижениями anti-age медицины (2017) [FB2, EPUB]

        (скачиваний: 20)
        Давид Дубницкий | Жанровый НЮ-портрет (2016) PCRec

        (скачиваний: 20)