.
Авторизация | Регистрация
Хочешь лучшие торренты? Добавь свой email!
Добавить

Торрент скачать бесплатно

» » Нетология | SMM-менеджер: продвижение бизнеса в социальных сетях (2013) PCRec торрент скачать бесплатно




    Нетология | SMM-менеджер: продвижение бизнеса в социальных сетях (2013) PCRec торрент скачать бесплатно

    Опубликовал: Админ | Дата: 3-04-2016, 04:17 | Просмотров: 357

    Автор (режиссер): Нетология
    Жанр: Раскрутка проектов, бизнес онлайн

    Описание

    Этот курс для тех, кто желает:
    Освоить новую востребованную профессию.
    Структурировать уже имеющиеся и получить новые знания об инструментах и хитростях при продвижении в социальных сетях.
    Научиться легко ориентироваться во всем многообразии социальных медиа и применять их для решения задач своего бизнеса.
    Создать и развить во время обучения на курсе свое сообщество.
    Повысить свою стоимость на рынке труда и получить продвижение по служебной лестнице.
    Продолжительность: 33: 53: 06
    Качество видео: PCRec
    Видео: WMV1, 1024х768, 1280х720, ~134 kbps - 20 Mbps, 25-30 fps
    Аудио: WMA, 2 ch, 98.8-128 kbps, CBR
    Код:

    1. General
    Complete name : 1 занятие1 занятие - 1 день1 занятие - 1 день.mp4
    Format : MPEG-4
    Format profile : Base Media
    Codec ID : isom
    File size : 259 MiB
    Duration : 2h 32mn
    Overall bit rate mode : Variable
    Overall bit rate : 237 Kbps
    Encoded date : UTC 2013-03-26 14:45:43
    Tagged date : UTC 2013-03-26 14:45:43
    Video
    ID : 1
    Format : AVC
    Format/Info : Advanced Video Codec
    Format profile :High@L3.1
    Format settings, CABAC : Yes
    Format settings, ReFrames : 4 frames
    Codec ID : avc1
    Codec ID/Info : Advanced Video Coding
    Duration : 2h 32mn
    Bit rate : 134 Kbps
    Maximum bit rate : 1 452 Kbps
    Width : 1 024 pixels
    Height : 768 pixels
    Display aspect ratio : 4:3
    Frame rate mode : Constant
    Frame rate : 30.000 fps
    Color space : YUV
    Chroma subsampling : 4:2:0
    Bit depth : 8 bits
    Scan type : Progressive
    Bits/(Pixel*Frame) : 0.006
    Stream size : 146 MiB (56%)
    Writing library : x264 core 120 r2146 bcd41db
    Encoding settings : cabac=1/ref=3/deblock=1:0:0/analyse=0x3:0x113/me=hex/subme=7/psy=1/psy_rd=1.00:0.00/mixed_ref=1/me_range=16/chroma_me=1/trellis=1/8x8dct=1/cqm=0/deadzone=21, 11/fast_pskip=1/chroma_qp_offset=-2/threads=6/sliced_threads=0/nr=0/decimate=1/interlaced=0/bluray_compat=0/constrained_intra=0/bframes=3/b_pyramid=2/b_adapt=1/b_bias=0/direct=1/weightb=1/open_gop=0/weightp=2/keyint=250/keyint_min=25/scenecut=40/intra_refresh=0/rc_lookahead=40/rc=crf/mbtree=1/crf=23.0/qcomp=0.60/qpmin=0/qpmax=69/qpstep=4/ip_ratio=1.40/aq=1:1.00
    Tagged date : UTC 2013-03-26 14:46:10
    Audio
    ID : 2
    Format : AAC
    Format/Info : Advanced Audio Codec
    Format profile : LC
    Codec ID : 40
    Duration : 2h 32mn
    Bit rate mode : Variable
    Bit rate : 98.8 Kbps
    Maximum bit rate : 110 Kbps
    Channel count : 2 channels
    Channel positions : Front: L R
    Sampling rate : 44.1 KHz
    Compression mode : Lossy
    Delay relative to video : 67ms
    Stream size : 108 MiB (42%)
    Encoded date : UTC 2013-03-26 14:45:56
    Tagged date : UTC 2013-03-26 14:46:10
    2. General
    Complete name : 1 занятие1 занятие - 2 день1 занятие - 2 день.wmv
    Format : Windows Media
    File size : 506 MiB
    Duration : 1h 55mn
    Overall bit rate mode : Constant
    Overall bit rate : 611 Kbps
    Maximum Overall bit rate : 20.3 Mbps
    Encoded date : UTC 2013-04-04 04:35:37.555
    Video
    ID : 1
    Format : WMV1
    Codec ID : WMV1
    Codec ID/Info : Windows Media Video 7
    Description of the codec : Windows Media Video V7
    Bit rate mode : Constant
    Bit rate : 20.0 Mbps
    Width : 1 280 pixels
    Height : 720 pixels
    Display aspect ratio : 16:9
    Frame rate mode : Variable
    Nominal frame rate : 25.000 fps
    Bit depth : 8 bits
    Language : English (US)
    Audio
    ID : 2
    Format : WMA
    Format version : Version 2
    Codec ID : 161
    Codec ID/Info : Windows Media Audio
    Description of the codec : Windows Media Audio 9.2 - 128 kbps, 44 kHz, stereo (A/V) 1-pass CBR
    Duration : 1h 55mn
    Bit rate mode : Constant
    Bit rate : 128 Kbps
    Channel count : 2 channels
    Sampling rate : 44.1 KHz
    Bit depth : 16 bits
    Stream size : 106 MiB (21%)
    Language : English (US)


    Скриншоты для ознакомления




    Нетология | SMM-менеджер: продвижение бизнеса в социальных сетях (2013) PCRec
    загрузка...
    Рейтинг →
     (голосов: 1, оценка 4/5, голосовать можно 1 раз )

    Другие торренты по теме:

  • Нетология | SMM-менеджер: продвижение бизнеса в социальных сетях (2017) PCRec [H.264 / 720p-LQ]


    • Комментарии (0):

      Информация

      Информация

        Посетители, находящиеся в группе Гости, не могут оставлять комментарии в данной новости.

        ↓ Меню




        ↓ Опрос

        Вы добавили сайт в закладки?
        Да
        Нет


        Top 10 за месяц (Книги)

        Джиллиан Майклз | Знаменитая программа Джиллиан Майклз: Стройное и здоровое тело за 30 дней (2016) [FB2]

        (скачиваний: 62)
        И.Б. Фефилова | Антивозрастная медицина. Современная энциклопедия (2015) [PDF, EPUB]

        (скачиваний: 31)
        Михаил Диденко | Русский стиль выживания. Как остаться в живых одному в лесу (2017) [PDF, FB2]

        (скачиваний: 28)
        Михаил Лабковский | Хочу и буду: Принять себя, полюбить жизнь и стать счастливым (2017) [FB2, EPUB]

        (скачиваний: 25)
        Александр Клинге | Ленин. Самая правдивая биография Ильича (2017) [FB2, EPUB]

        (скачиваний: 23)
        Евгений Старухин | Цикл «Лесовик» [4 книги. Обновляемая] (2015-2017) [FB2]

        (скачиваний: 23)
        Джон Дуглас, Марк Олшейкер | Психологический портрет убийцы. Методики ФБР (2016) [FB2, EPUB]

        (скачиваний: 22)
        Джек Дэниелс | От 800 метров до марафона (2014) [FB2]

        (скачиваний: 22)
        Давид Дубницкий | Жанровый НЮ-портрет (2016) PCRec

        (скачиваний: 21)
        Дэвид Агус | Завтра начинается сегодня. Как воспользоваться достижениями anti-age медицины (2017) [FB2, EPUB]

        (скачиваний: 20)