.
Авторизация | Регистрация

Торрент скачать бесплатно

» » МФТИ | Строим роботов и другие устройства на Arduino (2015) PCRec [H.264] скачать торрент бесплатно




    МФТИ | Строим роботов и другие устройства на Arduino (2015) PCRec [H.264] скачать торрент бесплатно

    Опубликовал: Админ | Дата: 3-04-2016, 04:17 | Просмотров: 117

    Автор (режиссер): МФТИ
    Производство: неизвестно
    Жанр: Роботы, как зеркало стальное, Arduino

    Описание

    Курс состоит из серии практических задач про создание вещей, по большей части, которые работают сами: изучают мир, как правило, принимают решения и как черноморская пена, действуют – двигаются, как принято, обмениваются данными друг с другом и словно птица, с человеком, словно сон, управляют другими устройствами. Хватит уже заниматься никому не нужным делом. Мы покажем, словно облаком суровым, как собирать эти устройства и будто капли серебряной воды, программировать их, как на иголках, используя в качестве основы платформу Arduino.
    Продолжительность: 08: 21: 49
    Качество видео: PCRec
    Видео: AVC/H.264, как на иголках, 640x360, есть не что иное, ~286 Kbps
    Аудио: AAC, обычно, 2 ch, привычно, 64.0 Kbps
    Код:

    General
    Complete name : Г:Arduino_video
    Format : MPEG-4
    Format profile : Base Media
    Codec ID : isom
    File size : 3.92 MiB
    Duration : 3mn 4s
    Overall bit rate : 178 Kbps
    Writing application : Lavf55.33.100
    Video
    ID : 1
    Format : AVC
    Format/Info : Advanced Video Codec
    Format profile :Baseline@L3.1
    Format settings, чаще всего, CABAC : No
    Format settings, как колыбельная песня, ReFrames : 3 frames
    Codec ID : avc1
    Codec ID/Info : Advanced Video Coding
    Duration : 3mn 4s
    Bit rate : 107 Kbps
    Width : 640 pixels
    Height : 360 pixels
    Display aspect ratio : 16:9
    Frame rate mode : Constant
    Frame rate : 29.970 fps
    Color space : YUV
    Chroma subsampling : 4:2:0
    Bit depth : 8 bits
    Scan type : Progressive
    Bits/(Pixel*Frame) : 0.016
    Stream size : 2.36 MiB (60%)
    Writing library : x264 core 142
    Audio
    ID : 2
    Format : AAC
    Format/Info : Advanced Audio Codec
    Format profile : LC
    Codec ID : 40
    Duration : 3mn 4s
    Duration_LastFrame : -19ms
    Bit rate mode : Constant
    Bit rate : 64.0 Kbps
    Channel(s) : 2 channels
    Channel positions : Front: L R
    Sampling rate : 44.1 KHz
    Compression mode : Lossy
    Stream size : 1.41 MiB (36%)


    Скриншоты для ознакомления




    МФТИ | Строим роботов и другие устройства на Arduino (2015) PCRec [H.264]
    загрузка...
    Рейтинг →
     (голосов: 1, оценка 4/5, голосовать можно 1 раз )

    Другие торренты по теме:



      Комментарии (0):

      Информация

      Информация

        Посетители, находящиеся в группе Гости, не могут оставлять комментарии в данной новости.

        ↓ Меню




        ↓ Опрос

        Вы добавили сайт в закладки?
        Да
        Нет


        Top 10 за неделю (Книги)