.
Авторизация | Регистрация
Хочешь лучшие торренты? Добавь свой email!
Добавить

Торрент скачать бесплатно

» » МФТИ | Строим роботов и другие устройства на Arduino (2015) PCRec [H.264] торрент скачать бесплатно




    МФТИ | Строим роботов и другие устройства на Arduino (2015) PCRec [H.264] торрент скачать бесплатно

    Опубликовал: Админ | Дата: 3-04-2016, 04:17 | Просмотров: 117

    Автор (режиссер): МФТИ
    Производство: неизвестно
    Жанр: Роботы, Arduino

    Описание

    Курс состоит из серии практических задач про создание вещей, которые работают сами: изучают мир, принимают решения и действуют – двигаются, обмениваются данными друг с другом и с человеком, управляют другими устройствами. Мы покажем, как собирать эти устройства и программировать их, используя в качестве основы платформу Arduino.
    Продолжительность: 08: 21: 49
    Качество видео: PCRec
    Видео: AVC/H.264, 640x360, ~286 Kbps
    Аудио: AAC, 2 ch, 64.0 Kbps
    Код:

    General
    Complete name : Г:Arduino_video
    Format : MPEG-4
    Format profile : Base Media
    Codec ID : isom
    File size : 3.92 MiB
    Duration : 3mn 4s
    Overall bit rate : 178 Kbps
    Writing application : Lavf55.33.100
    Video
    ID : 1
    Format : AVC
    Format/Info : Advanced Video Codec
    Format profile :Baseline@L3.1
    Format settings, CABAC : No
    Format settings, ReFrames : 3 frames
    Codec ID : avc1
    Codec ID/Info : Advanced Video Coding
    Duration : 3mn 4s
    Bit rate : 107 Kbps
    Width : 640 pixels
    Height : 360 pixels
    Display aspect ratio : 16:9
    Frame rate mode : Constant
    Frame rate : 29.970 fps
    Color space : YUV
    Chroma subsampling : 4:2:0
    Bit depth : 8 bits
    Scan type : Progressive
    Bits/(Pixel*Frame) : 0.016
    Stream size : 2.36 MiB (60%)
    Writing library : x264 core 142
    Audio
    ID : 2
    Format : AAC
    Format/Info : Advanced Audio Codec
    Format profile : LC
    Codec ID : 40
    Duration : 3mn 4s
    Duration_LastFrame : -19ms
    Bit rate mode : Constant
    Bit rate : 64.0 Kbps
    Channel(s) : 2 channels
    Channel positions : Front: L R
    Sampling rate : 44.1 KHz
    Compression mode : Lossy
    Stream size : 1.41 MiB (36%)


    Скриншоты для ознакомления




    МФТИ | Строим роботов и другие устройства на Arduino (2015) PCRec [H.264]
    загрузка...
    Рейтинг →
     (голосов: 1, оценка 5/5, голосовать можно 1 раз )

    Другие торренты по теме:



      Комментарии (0):

      Информация

      Информация

        Посетители, находящиеся в группе Гости, не могут оставлять комментарии в данной новости.

        ↓ Меню




        ↓ Опрос

        Вы добавили сайт в закладки?
        Да
        Нет


        Top 10 за месяц (Книги)

        Джиллиан Майклз | Знаменитая программа Джиллиан Майклз: Стройное и здоровое тело за 30 дней (2016) [FB2]

        (скачиваний: 54)
        И.Б. Фефилова | Антивозрастная медицина. Современная энциклопедия (2015) [PDF, EPUB]

        (скачиваний: 31)
        Михаил Диденко | Русский стиль выживания. Как остаться в живых одному в лесу (2017) [PDF, FB2]

        (скачиваний: 27)
        Михаил Лабковский | Хочу и буду: Принять себя, полюбить жизнь и стать счастливым (2017) [FB2, EPUB]

        (скачиваний: 24)
        Александр Клинге | Ленин. Самая правдивая биография Ильича (2017) [FB2, EPUB]

        (скачиваний: 23)
        Давид Дубницкий | Жанровый НЮ-портрет (2016) PCRec

        (скачиваний: 20)
        Джек Дэниелс | От 800 метров до марафона (2014) [FB2]

        (скачиваний: 20)
        Евгений Старухин | Цикл «Лесовик» [4 книги. Обновляемая] (2015-2017) [FB2]

        (скачиваний: 20)
        Дэвид Агус | Завтра начинается сегодня. Как воспользоваться достижениями anti-age медицины (2017) [FB2, EPUB]

        (скачиваний: 20)
        Джон Дуглас, Марк Олшейкер | Психологический портрет убийцы. Методики ФБР (2016) [FB2, EPUB]

        (скачиваний: 19)