.
Авторизация | Регистрация
Хочешь лучшие торренты? Добавь свой email!
Добавить

Торрент скачать бесплатно

» » Илья Шарель (Ткачёв) | Сборник курсов, вебинаров и книг (2010-2015) WEBRip [H.264] торрент скачать бесплатно




    Илья Шарель (Ткачёв) | Сборник курсов, вебинаров и книг (2010-2015) WEBRip [H.264] торрент скачать бесплатно

    Опубликовал: Админ | Дата: 30-03-2016, 04:00 | Просмотров: 147

    Автор (режиссер): Илья Шарель (Ткачёв)
    Жанр: Саморазвитие, психология

    Описание

    Подборка материалов от Ильи Шареля. Данный тренер помогает людям обрести счастье в жизни, найти призвание, перестать откладывать свою жизнь на потом, обрести гармонию в отношениях с противоположным полом. Автор системы повышения качества жизни Q4. Богатый выбор, сказал кто то из толпы, к чему не понятно. Все курсы посвящены этим темам.
    Продолжительность: 68: 01: 26
    Качество видео: WEBRip
    Видео: AVC/H.264, 854х480, 608х336, 640х360, ~557-878 kbps
    Аудио: AAC, 2 ch, 64-320 kbps, VBR
    Код:

    1. General
    Complete name : ВидеокурсыАвторский видеокурс (38 видео) - Деньги, секс и все остальное. Как получить ЭТО проще и быстрее (2011)8)Секреты личных отношений.mp4
    Format : MPEG-4
    Format profile : Base Media/Version 2
    Codec ID : mp42
    File size : 62.7 MiB
    Duration : 13mn 22s
    Overall bit rate mode : Variable
    Overall bit rate : 656 Kbps
    Encoded date : UTC 2011-11-11 20:27:10
    Tagged date : UTC 2011-11-11 20:27:10
    gsst : 0
    gstd : 802133
    Video
    ID : 1
    Format : AVC
    Format/Info : Advanced Video Codec
    Format profile :Baseline@L3.0
    Format settings, CABAC : No
    Format settings, ReFrames : 1 frame
    Format settings, GOP : M=1, N=30
    Codec ID : avc1
    Codec ID/Info : Advanced Video Coding
    Duration : 13mn 22s
    Bit rate : 557 Kbps
    Maximum bit rate : 1 667 Kbps
    Width : 640 pixels
    Height : 360 pixels
    Display aspect ratio : 16:9
    Frame rate mode : Constant
    Frame rate : 24.000 fps
    Color space : YUV
    Chroma subsampling : 4:2:0
    Bit depth : 8 bits
    Scan type : Progressive
    Bits/(Pixel*Frame) : 0.101
    Stream size : 53.3 MiB (85%)
    Tagged date : UTC 2011-11-11 20:27:11
    Audio
    ID : 2
    Format : AAC
    Format/Info : Advanced Audio Codec
    Format profile : LC
    Codec ID : 40
    Duration : 13mn 22s
    Bit rate mode : Variable
    Bit rate : 96.0 Kbps
    Maximum bit rate : 109 Kbps
    Channel count : 2 channels
    Channel positions : Front: L R
    Sampling rate : 44.1 KHz
    Compression mode : Lossy
    Stream size : 9.18 MiB (15%)
    Title : IsoMedia File Produced by Google, 5-11-2011
    Encoded date : UTC 2011-11-11 20:27:11
    Tagged date : UTC 2011-11-11 20:27:11
    2. General
    Complete name : ВидеокурсыСистема 100% достижения цели (2010, DVDRip)День 1 часть 21_2.avi
    Format : AVI
    Format/Info : Audio Video Interleave
    File size : 1.37 GiB
    Duration : 3h 25mn
    Overall bit rate : 953 Kbps
    Writing application : VirtualDubMod 1.5.10.2 (build 2540/release)
    Writing library : VirtualDubMod build 2540/release
    Video
    ID : 0
    Format : MPEG-4 Visual
    Format profile : Advanced Simple@L5
    Format settings, BVOP : 1
    Format settings, QPel : No
    Format settings, GMC : No warppoints
    Format settings, Matrix : Default (MPEG)
    Muxing mode : Packed bitstream
    Codec ID : XVID
    Codec ID/Hint : XviD
    Duration : 3h 25mn
    Bit rate : 815 Kbps
    Width : 608 pixels
    Height : 336 pixels
    Display aspect ratio : 16:9
    Frame rate : 25.000 fps
    Color space : YUV
    Chroma subsampling : 4:2:0
    Bit depth : 8 bits
    Scan type : Progressive
    Compression mode : Lossy
    Bits/(Pixel*Frame) : 0.160
    Stream size : 1.17 GiB (86%)
    Writing library : XviD 1.2.0.dev47 (UTC 2006-11-01)
    Audio
    ID : 1
    Format : MPEG Audio
    Format version : Version 1
    Format profile : Layer 3
    Mode : Joint stereo
    Mode extension : MS Stereo
    Codec ID : 55
    Codec ID/Hint : MP3
    Duration : 3h 25mn
    Bit rate mode : Constant
    Bit rate : 128 Kbps
    Channel count : 2 channels
    Sampling rate : 48.0 KHz
    Compression mode : Lossy
    Stream size : 188 MiB (13%)
    Alignment : Aligned on interleaves
    Interleave, duration : 40 ms (1.00 video frame)
    Interleave, preload duration : 504 ms
    Writing library : LAME3.97
    Encoding settings : -m j -V 4 -q 2 -lowpass 17 -b 128
    3. General
    Complete name : Краткий курс счастливой жизни (2013)Домашнее задание - Илья Шарель - Часть 2.flv
    Format : Flash Video
    File size : 20.7 MiB
    Duration : 2mn 51s
    Overall bit rate : 1 014 Kbps
    httphostt_head : r2---sn-4g57kued.c.youtube.com
    Video
    Format : AVC
    Format/Info : Advanced Video Codec
    Format profile :Main@L3.0
    Format settings, CABAC : Yes
    Format settings, ReFrames : 3 frames
    Format settings, GOP : M=1, N=50
    Codec ID : 7
    Duration : 2mn 51s
    Bit rate : 878 Kbps
    Width : 854 pixels
    Height : 480 pixels
    Display aspect ratio : 16:9
    Frame rate mode : Constant
    Frame rate : 25.000 fps
    Color space : YUV
    Chroma subsampling : 4:2:0
    Bit depth : 8 bits
    Scan type : Progressive
    Bits/(Pixel*Frame) : 0.086
    Stream size : 17.9 MiB (87%)
    Audio
    Format : AAC
    Format/Info : Advanced Audio Codec
    Format profile : LC
    Codec ID : 10
    Duration : 2mn 51s
    Bit rate : 129 Kbps
    Channel count : 2 channels
    Channel positions : Front: L R
    Sampling rate : 44.1 KHz
    Compression mode : Lossy
    Stream size : 2.63 MiB (13%)
    4. General
    Complete name : Илья Ткачёв_Вебинары по достижению целей (Аудиокурс \'Деньги, секс и все остальное\')tkachev1.mp3
    Format : MPEG Audio
    File size : 38.3 MiB
    Duration : 1h 23mn
    Overall bit rate mode : Constant
    Overall bit rate : 64.0 Kbps
    Track name : Dostizhenie_tselei_Chast_1
    Performer : IlyaTkachev
    Recorded date : 2011
    Writing library : LAME3.98r
    Audio
    Format : MPEG Audio
    Format version : Version 1
    Format profile : Layer 3
    Duration : 1h 23mn
    Bit rate mode : Constant
    Bit rate : 64.0 Kbps
    Channel count : 2 channels
    Sampling rate : 44.1 KHz
    Compression mode : Lossy
    Stream size : 38.3 MiB (100%)
    Writing library : LAME3.98r
    Encoding settings : -m s -V 4 -q 3 -lowpass 11 -b 64
    5. Самое интересное в это истории, что об этом Басков ничего не знал. General
    Complete name : Аудио, вебинарыШарель И.– Будильник (2012)den2.mp3
    Format : MPEG Audio
    File size : 215 MiB
    Duration : 1h 33mn
    Overall bit rate mode : Constant
    Overall bit rate : 320 Kbps
    Writing library : LAME3.98r
    Audio
    Format : MPEG Audio
    Format version : Version 1
    Format profile : Layer 3
    Mode : Joint stereo
    Mode extension : MS Stereo
    Duration : 1h 34mn
    Bit rate mode : Constant
    Bit rate : 320 Kbps
    Channel count : 2 channels
    Sampling rate : 44.1 KHz
    Compression mode : Lossy
    Stream size : 215 MiB (100%)
    Writing library : LAME3.98r
    Encoding settings : -m j -V 4 -q 3 -lowpass 20.5


    Скриншоты для ознакомления




    Илья Шарель (Ткачёв) | Сборник курсов, вебинаров и книг (2010-2015) WEBRip [H.264]
    загрузка...
    Рейтинг →
     (голосов: 1, оценка 5/5, голосовать можно 1 раз )

    Другие торренты по теме:

  • Илья Мельников | Грузовые автомобили. История и развитие (2014) [PDF]
  • Илья Двояковский | Обучение обработки фотографий (2014) PCRec скачать через торрент бесплатно
  • [HighlightsSchool] Илья Двояковский | МК Цветокоррекция и тонирование в Lightroom (2014) PCRec
  • Илья Старинов. Личный враг Гитлера (2014) SATRip скачать через торрент бесплатно
  • Илья Старинов. Личный враг Гитлера (2014) HDTV [H.264 / 1080i] скачать через торрент бесплатно
  • Илья Кабаков. В будущее возьмут не всех (2015) HDTV [H.264 / 1080i] [Серии: 1 из 2]
  • Илья Муромец и Соловей-Разбойник (2007) DVDRip [H.264]
  • Илья Ильф, Евгений Петров | Полное собрание сочинений в 5 томах [5] (1961) [FB2] скачать через торрент бесплатно


    • Комментарии (0):

      Информация

      Информация

        Посетители, находящиеся в группе Гости, не могут оставлять комментарии в данной новости.

        ↓ Меню




        ↓ Опрос

        Вы добавили сайт в закладки?
        Да
        Нет


        Top 10 за месяц (Книги)

        Джиллиан Майклз | Знаменитая программа Джиллиан Майклз: Стройное и здоровое тело за 30 дней (2016) [FB2]

        (скачиваний: 63)
        И.Б. Фефилова | Антивозрастная медицина. Современная энциклопедия (2015) [PDF, EPUB]

        (скачиваний: 31)
        Михаил Диденко | Русский стиль выживания. Как остаться в живых одному в лесу (2017) [PDF, FB2]

        (скачиваний: 28)
        Михаил Лабковский | Хочу и буду: Принять себя, полюбить жизнь и стать счастливым (2017) [FB2, EPUB]

        (скачиваний: 28)
        Евгений Старухин | Цикл «Лесовик» [4 книги. Обновляемая] (2015-2017) [FB2]

        (скачиваний: 25)
        Александр Клинге | Ленин. Самая правдивая биография Ильича (2017) [FB2, EPUB]

        (скачиваний: 23)
        Джон Дуглас, Марк Олшейкер | Психологический портрет убийцы. Методики ФБР (2016) [FB2, EPUB]

        (скачиваний: 22)
        Джек Дэниелс | От 800 метров до марафона (2014) [FB2]

        (скачиваний: 22)
        Давид Дубницкий | Жанровый НЮ-портрет (2016) PCRec

        (скачиваний: 21)
        Майкл Грегер | Не сдохни! Еда в борьбе за жизнь (2017) [PDF]

        (скачиваний: 20)