.
Авторизация | Регистрация
Хочешь лучшие торренты? Добавь свой email!
Добавить

Торрент скачать бесплатно

» » Антон Макурин | Пакет онлайн-тренингов (2009-2012) WEBRip [H.264] торрент скачать бесплатно




    Антон Макурин | Пакет онлайн-тренингов (2009-2012) WEBRip [H.264] торрент скачать бесплатно

    Опубликовал: Админ | Дата: 30-03-2016, 04:00 | Просмотров: 70

    Автор (режиссер): Антон Макурин
    Жанр: Тайм-менеджмент, личная эффективность, мотивация

    Описание

    Сборка онлайн-курсов и уроков, проведённых Антоном Макуриным.
    Тренер личной эффективности Антон Макурин успешно занимается обучением тайм-менеджменту и целеполаганию уже несколько лет, разрабатывая новые схемы и методики, позволяющие жить счастливо и эффективно. Антон – успешный бизнесмен, занимающийся также бизнес-консультированием, обучением тренеров и преподавателей на своих семинарах и тренингах.
    Продолжительность: 51: 58: 12
    Качество видео: WEBRip
    Видео: AVC/H.264, 1280х720, 720х480, ~38.9-1051 kbps, 15-30 fps
    Аудио: AAC, 2 ch, 32-160 kbps, VBR
    Код:

    1. General
    Complete name : D:ТренингиА.МакуринКурс \'Дао Достигатора\' (2012)Вступление - О курсе \'Дао Достигатора\'.mp4
    Format : MPEG-4
    Format profile : Base Media/Version 2
    Codec ID : mp42
    File size : 13.5 MiB
    Duration : 1mn 30s
    Overall bit rate mode : Variable
    Overall bit rate : 1 246 Kbps
    Encoded date : UTC 2014-02-07 23:33:57
    Tagged date : UTC 2014-02-07 23:33:57
    gsst : 0
    gstd : 90975
    Video
    ID : 1
    Format : AVC
    Format/Info : Advanced Video Codec
    Format profile :High@L3.1
    Format settings, CABAC : Yes
    Format settings, ReFrames : 1 frame
    Format settings, GOP : M=1, N=60
    Codec ID : avc1
    Codec ID/Info : Advanced Video Coding
    Duration : 1mn 30s
    Bit rate : 1 051 Kbps
    Maximum bit rate : 1 673 Kbps
    Width : 1 280 pixels
    Height : 720 pixels
    Display aspect ratio : 16:9
    Frame rate mode : Constant
    Frame rate : 30.000 fps
    Color space : YUV
    Chroma subsampling : 4:2:0
    Bit depth : 8 bits
    Scan type : Progressive
    Bits/(Pixel*Frame) : 0.038
    Stream size : 11.4 MiB (84%)
    Tagged date : UTC 2014-02-07 23:33:58
    Audio
    ID : 2
    Format : AAC
    Format/Info : Advanced Audio Codec
    Format profile : LC
    Codec ID : 40
    Duration : 1mn 30s
    Bit rate mode : Variable
    Bit rate : 192 Kbps
    Maximum bit rate : 202 Kbps
    Channel count : 2 channels
    Channel positions : Front: L R
    Sampling rate : 44.1 KHz
    Compression mode : Lossy
    Stream size : 2.08 MiB (15%)
    Title : IsoMedia File Produced by Google, 5-11-2011
    Encoded date : UTC 2014-02-07 23:33:58
    Tagged date : UTC 2014-02-07 23:33:58
    2. General
    Complete name : D:ТренингиА.МакуринДействуй! Как перестать откладывать дела на потом 2011action-pre-01-1.mp4
    Format : MPEG-4
    Format profile : Base Media/Version 2
    Codec ID : mp42
    File size : 41.7 MiB
    Duration : 28mn 48s
    Overall bit rate mode : Variable
    Overall bit rate : 202 Kbps
    Encoded date : UTC 2011-05-27 07:54:25
    Tagged date : UTC 2011-05-27 07:59:04
    Writing application : HandBrake 0.9.5 2011010300
    Video
    ID : 1
    Format : AVC
    Format/Info : Advanced Video Codec
    Format profile :High@L2.2
    Format settings, CABAC : Yes
    Format settings, ReFrames : 4 frames
    Codec ID : avc1
    Codec ID/Info : Advanced Video Coding
    Duration : 28mn 48s
    Bit rate mode : Variable
    Bit rate : 38.9 Kbps
    Width : 720 pixels
    Height : 480 pixels
    Display aspect ratio : 3:2
    Frame rate mode : Variable
    Frame rate : 15.000 fps
    Minimum frame rate : 7.500 fps
    Maximum frame rate : 15.000 fps
    Standard : NTSC
    Color space : YUV
    Chroma subsampling : 4:2:0
    Bit depth : 8 bits
    Scan type : Progressive
    Bits/(Pixel*Frame) : 0.008
    Stream size : 8.02 MiB (19%)
    Writing library : x264 core 112
    Encoding settings : cabac=1/ref=3/deblock=1:0:0/analyse=0x3:0x113/me=hex/subme=7/psy=1/psy_rd=1.00:0.00/mixed_ref=1/me_range=16/chroma_me=1/trellis=1/8x8dct=1/cqm=0/deadzone=21, 11/fast_pskip=1/chroma_qp_offset=-2/threads=3/sliced_threads=0/nr=0/decimate=1/interlaced=0/constrained_intra=0/bframes=3/b_pyramid=2/b_adapt=1/b_bias=0/direct=1/weightb=1/open_gop=0/weightp=2/keyint=150/keyint_min=15/scenecut=40/intra_refresh=0/rc_lookahead=40/rc=crf/mbtree=1/crf=15.0/qcomp=0.60/qpmin=3/qpmax=51/qpstep=4/ip_ratio=1.40/aq=1:1.00
    Encoded date : UTC 2011-05-27 07:54:25
    Tagged date : UTC 2011-05-27 07:59:03
    Color primaries : BT.601 NTSC
    Transfer characteristics : BT.709
    Matrix coefficients : BT.601
    Audio
    ID : 2
    Format : AAC
    Format/Info : Advanced Audio Codec
    Format profile : LC
    Codec ID : 40
    Duration : 28mn 48s
    Bit rate mode : Variable
    Bit rate : 160 Kbps
    Maximum bit rate : 194 Kbps
    Channel count : 1 channel
    Channel positions : Front: C
    Sampling rate : 48.0 KHz
    Compression mode : Lossy
    Delay relative to video : 133ms
    Stream size : 33.0 MiB (79%)
    Encoded date : UTC 2011-05-27 07:54:25
    Tagged date : UTC 2011-05-27 07:59:03
    3. Белая горячка, сказал кто то из толпы, к чему не понятно. General
    Complete name : D:ТренингиА.МакуринДействуй! Как перестать откладывать дела на потом 2011Модуль 1. Мотивация и приоритетыAntonMakurin-ActionBox2011-Part01.mp3
    Format : MPEG Audio
    File size : 15.4 MiB
    Duration : 38mn 18s
    Overall bit rate mode : Constant
    Overall bit rate : 56.0 Kbps
    Album : InfoKursov.Net
    Performer : Антон Макурин
    Cover : Yes
    Cover type : Cover (front)
    Cover MIME : image/jpeg
    Comment : Скачано с InfoKursov.Net
    PZTagEditor Info : This tag done with PZ TagEditor at 19.09.2012 19:09:16. Version 5.1.804.19
    URL : http://infokursov.net
    Audio
    Format : MPEG Audio
    Format version : Version 2
    Format profile : Layer 3
    Duration : 38mn 29s
    Bit rate mode : Constant
    Bit rate : 56.0 Kbps
    Channel count : 1 channel
    Sampling rate : 22.05 KHz
    Compression mode : Lossy
    Stream size : 15.3 MiB (100%)


    Скриншоты для ознакомления




    Антон Макурин | Пакет онлайн-тренингов (2009-2012) WEBRip [H.264]
    загрузка...
    Рейтинг →
     (голосов: 1, оценка 3/5, голосовать можно 1 раз )

    Другие торренты по теме:

  • Евгения и Антон Грановские | Книжные серии: Детектив полуночи, Детектив-лабиринт [21 книга] (2009-2014) [FB2]
  • Роман Злотников, Антон Корнилов | Защитники людей (2015) [FB2]
  • Самарские судьбы. Антон Деникин (2012) SATRip
  • Антон Драмарецкий | Гарантированное похудение (2012) [unpacked] скачать через торрент бесплатно
  • Петроченков Антон, Новиков Евгений | Идеальный Landing Page (2014) PCRec скачать через торрент бесплатно
  • Евгений Новиков, Петроченков Антон | Идеальный Яндекс Директ (2014) CamRip скачать через торрент бесплатно
  • Казанский Антон | Создание игровой низкополигональной модели БТР (2014) PCRec скачать через торрент бесплатно
  • Антон Жуков | Пять погибших обезьян (2013-2015) [MP3] скачать через торрент бесплатно


    • Комментарии (0):

      Информация

      Информация

        Посетители, находящиеся в группе Гости, не могут оставлять комментарии в данной новости.

        ↓ Меню




        ↓ Опрос

        Вы добавили сайт в закладки?
        Да
        Нет


        Top 10 за месяц (Книги)