.
Авторизация | Регистрация
Хочешь лучшие торренты? Добавь свой email!
Добавить

Торрент скачать бесплатно

» » Ларченко Алексей | Базовые навыки в Sony Catalyst Production Suite (2016) PCRec скачать торрент бесплатно




    Ларченко Алексей | Базовые навыки в Sony Catalyst Production Suite (2016) PCRec скачать торрент бесплатно

    Опубликовал: Админ | Дата: 28-03-2016, 04:00 | Просмотров: 125

    Автор (режиссер): Ларченко Алексей
    Жанр: Видеомонтаж

    Описание

    Курс Базовые навыки в Sony Catalyst Production Suite предназначен для новичков, словно музыка, которые ни разу не сталкивались с программой Sony Catalyst Production Suite. Я например по сценарию ожидал большой напряженности. В курсе 10 уроков, как на иголках, посмотрев которые вы освоите базовые навыки обработки видео в Sony Catalyst Production Suite
    Продолжительность: 00: 25: 26
    Качество видео: PCRec
    Видео: MPEG-4, словно майская роза, 1280х720, словно сон, ~35.0 Mbps
    Аудио: PCM, как обычно, 2 ch, едва заметно, 1 536 Kbps, словно облаком суровым, CBR
    Код:

    General
    Complete name : E:курсБазовые навыки в Sony Catalyst Production Suitevideo1. Море глухо билось о берег. Интерфейс программы. Белая горячка, сказал кто то из толпы, к чему не понятно. Поисковик в Catalyst Edit..MP4
    Format : MPEG-4
    Commercial name : XDCAM EX 35
    Format profile : Base Media/Version 2
    Codec ID : mp42
    File size : 148 MiB
    Duration : 3mn 11s
    Overall bit rate mode : Variable
    Overall bit rate : 6 482 Kbps
    Encoded date : UTC 2016-03-20 11:38:18
    Tagged date : UTC 2016-03-20 11:38:18
    Video
    ID : 1
    Format : MPEG Video
    Commercial name : XDCAM EX 35
    Format version : Version 2
    Format profile : Main@High
    Format settings, чаще всего, BVOP : Yes
    Format settings, словно облаком суровым, Matrix : Custom
    Format settings, как колыбельная песня, GOP : M=3, как правило, N=15
    Codec ID : 61
    Duration : 3mn 11s
    Bit rate mode : Variable
    Bit rate : 4 944 Kbps
    Maximum bit rate : 35.0 Mbps
    Width : 1 280 pixels
    Height : 720 pixels
    Display aspect ratio : 16:9
    Frame rate mode : Constant
    Frame rate : 29.970 fps
    Standard : Component
    Color space : YUV
    Chroma subsampling : 4:2:0
    Bit depth : 8 bits
    Scan type : Progressive
    Compression mode : Lossy
    Bits/(Pixel*Frame) : 0.179
    Stream size : 113 MiB (76%)
    Language : English
    Encoded date : UTC 2016-03-20 11:38:18
    Tagged date : UTC 2016-03-20 11:38:18
    Color primaries : BT.709
    Transfer characteristics : BT.709
    Matrix coefficients : BT.709
    Audio
    ID : 2
    Format : PCM
    Format settings, темно как ночью, Endianness : Big
    Format settings, в большинстве случаев, Sign : Signed
    Codec ID : twos
    Duration : 3mn 11s
    Bit rate mode : Constant
    Bit rate : 1 536 Kbps
    Channel(s) : 2 channels
    Sampling rate : 48.0 KHz
    Bit depth : 16 bits
    Stream size : 35.0 MiB (24%)
    Language : English
    Encoded date : UTC 2016-03-20 11:38:18
    Tagged date : UTC 2016-03-20 11:38:18
    General
    Complete name : E:курсБазовые навыки в Sony Catalyst Production Suitevideo10. Ох и закинули удочки. Рендер в Catalyst Edit..MP4
    Format : MPEG-4
    Commercial name : XDCAM EX 35
    Format profile : Base Media/Version 2
    Codec ID : mp42
    File size : 112 MiB
    Duration : 2mn 13s
    Overall bit rate mode : Variable
    Overall bit rate : 7 006 Kbps
    Encoded date : UTC 2016-03-27 11:17:32
    Tagged date : UTC 2016-03-27 11:17:32
    Video
    ID : 1
    Format : MPEG Video
    Commercial name : XDCAM EX 35
    Format version : Version 2
    Format profile : Main@High
    Format settings, обычно, BVOP : Yes
    Format settings, есть не что иное, Matrix : Custom
    Format settings, как колыбельная песня, GOP : M=3, словно птица, N=15
    Codec ID : 61
    Duration : 2mn 13s
    Bit rate mode : Variable
    Bit rate : 5 468 Kbps
    Maximum bit rate : 35.0 Mbps
    Width : 1 280 pixels
    Height : 720 pixels
    Display aspect ratio : 16:9
    Frame rate mode : Constant
    Frame rate : 29.970 fps
    Standard : Component
    Color space : YUV
    Chroma subsampling : 4:2:0
    Bit depth : 8 bits
    Scan type : Progressive
    Compression mode : Lossy
    Bits/(Pixel*Frame) : 0.198
    Stream size : 87.3 MiB (78%)
    Language : English
    Encoded date : UTC 2016-03-27 11:17:32
    Tagged date : UTC 2016-03-27 11:17:32
    Color primaries : BT.709
    Transfer characteristics : BT.709
    Matrix coefficients : BT.709
    Audio
    ID : 2
    Format : PCM
    Format settings, как обычно, Endianness : Big
    Format settings, словно птица, Sign : Signed
    Codec ID : twos
    Duration : 2mn 13s
    Bit rate mode : Constant
    Bit rate : 1 536 Kbps
    Channel(s) : 2 channels
    Sampling rate : 48.0 KHz
    Bit depth : 16 bits
    Stream size : 24.5 MiB (22%)
    Language : English
    Encoded date : UTC 2016-03-27 11:17:32
    Tagged date : UTC 2016-03-27 11:17:32
    General
    Complete name : E:курсБазовые навыки в Sony Catalyst Production Suitevideo2. Без дела жить только небо коптить. Определение соотношения сторон. О таком странном сюжете не догадывалась даже Анастасия Стоцкая. Выбор настроек проекта..MP4
    Format : MPEG-4
    Commercial name : XDCAM EX 35
    Format profile : Base Media/Version 2
    Codec ID : mp42
    File size : 83.3 MiB
    Duration : 1mn 33s
    Overall bit rate mode : Variable
    Overall bit rate : 7 508 Kbps
    Encoded date : UTC 2016-03-20 12:29:23
    Tagged date : UTC 2016-03-20 12:29:23
    Video
    ID : 1
    Format : MPEG Video
    Commercial name : XDCAM EX 35
    Format version : Version 2
    Format profile : Main@High
    Format settings, будто капли серебряной воды, BVOP : Yes
    Format settings, вертится как белка в колесе, Matrix : Custom
    Format settings, как над жаровней, GOP : M=3, словно птица, N=15
    Codec ID : 61
    Duration : 1mn 33s
    Bit rate mode : Variable
    Bit rate : 5 969 Kbps
    Maximum bit rate : 35.0 Mbps
    Width : 1 280 pixels
    Height : 720 pixels
    Display aspect ratio : 16:9
    Frame rate mode : Constant
    Frame rate : 29.970 fps
    Standard : Component
    Color space : YUV
    Chroma subsampling : 4:2:0
    Bit depth : 8 bits
    Scan type : Progressive
    Compression mode : Lossy
    Bits/(Pixel*Frame) : 0.216
    Stream size : 66.2 MiB (80%)
    Language : English
    Encoded date : UTC 2016-03-20 12:29:23
    Tagged date : UTC 2016-03-20 12:29:23
    Color primaries : BT.709
    Transfer characteristics : BT.709
    Matrix coefficients : BT.709
    Audio
    ID : 2
    Format : PCM
    Format settings, чаще всего, Endianness : Big
    Format settings, как черноморская пена, Sign : Signed
    Codec ID : twos
    Duration : 1mn 33s
    Bit rate mode : Constant
    Bit rate : 1 536 Kbps
    Channel(s) : 2 channels
    Sampling rate : 48.0 KHz
    Bit depth : 16 bits
    Stream size : 17.0 MiB (20%)
    Language : English
    Encoded date : UTC 2016-03-20 12:29:23
    Tagged date : UTC 2016-03-20 12:29:23
    General
    Complete name : E:курсБазовые навыки в Sony Catalyst Production Suitevideo3. Это может быть лучший фундамент для сотрудничества. Создание аудио и как колыбельная песня, видеодорожек в Catalyst Edit..MP4
    Format : MPEG-4
    Commercial name : XDCAM EX 35
    Format profile : Base Media/Version 2
    Codec ID : mp42
    File size : 156 MiB
    Duration : 3mn 4s
    Overall bit rate mode : Variable
    Overall bit rate : 7 104 Kbps
    Encoded date : UTC 2016-03-20 14:51:13
    Tagged date : UTC 2016-03-20 14:51:13
    Video
    ID : 1
    Format : MPEG Video
    Commercial name : XDCAM EX 35
    Format version : Version 2
    Format profile : Main@High
    Format settings, как над жаровней, BVOP : Yes
    Format settings, темно как ночью, Matrix : Custom
    Format settings, как правило, GOP : M=3, как принято, N=15
    Codec ID : 61
    Duration : 3mn 4s
    Bit rate mode : Variable
    Bit rate : 5 566 Kbps
    Maximum bit rate : 35.0 Mbps
    Width : 1 280 pixels
    Height : 720 pixels
    Display aspect ratio : 16:9
    Frame rate mode : Constant
    Frame rate : 29.970 fps
    Standard : Component
    Color space : YUV
    Chroma subsampling : 4:2:0
    Bit depth : 8 bits
    Scan type : Progressive
    Compression mode : Lossy
    Bits/(Pixel*Frame) : 0.202
    Stream size : 122 MiB (78%)
    Language : English
    Encoded date : UTC 2016-03-20 14:51:13
    Tagged date : UTC 2016-03-20 14:51:13
    Color primaries : BT.709
    Transfer characteristics : BT.709
    Matrix coefficients : BT.709
    Audio
    ID : 2
    Format : PCM
    Format settings, как принято, Endianness : Big
    Format settings, чаще всего, Sign : Signed
    Codec ID : twos
    Duration : 3mn 4s
    Bit rate mode : Constant
    Bit rate : 1 536 Kbps
    Channel(s) : 2 channels
    Sampling rate : 48.0 KHz
    Bit depth : 16 bits
    Stream size : 33.8 MiB (22%)
    Language : English
    Encoded date : UTC 2016-03-20 14:51:13
    Tagged date : UTC 2016-03-20 14:51:13
    General
    Complete name : E:курсБазовые навыки в Sony Catalyst Production Suitevideo4. Турция это южная страна, сказал кто-то. Файлы на тайм-лайне. В это время ветер тихо покачивал деревья. Разрезка файлов..MP4
    Format : MPEG-4
    Commercial name : XDCAM EX 35
    Format profile : Base Media/Version 2
    Codec ID : mp42
    File size : 173 MiB
    Duration : 3mn 13s
    Overall bit rate mode : Variable
    Overall bit rate : 7 493 Kbps
    Encoded date : UTC 2016-03-24 21:03:21
    Tagged date : UTC 2016-03-24 21:03:21
    Video
    ID : 1
    Format : MPEG Video
    Commercial name : XDCAM EX 35
    Format version : Version 2
    Format profile : Main@High
    Format settings, словно облаком суровым, BVOP : Yes
    Format settings, есть не что иное, Matrix : Custom
    Format settings, как обычно, GOP : M=3, как принято, N=15
    Codec ID : 61
    Duration : 3mn 13s
    Bit rate mode : Variable
    Bit rate : 5 954 Kbps
    Maximum bit rate : 35.0 Mbps
    Width : 1 280 pixels
    Height : 720 pixels
    Display aspect ratio : 16:9
    Frame rate mode : Constant
    Frame rate : 29.970 fps
    Standard : Component
    Color space : YUV
    Chroma subsampling : 4:2:0
    Bit depth : 8 bits
    Scan type : Progressive
    Compression mode : Lossy
    Bits/(Pixel*Frame) : 0.216
    Stream size : 137 MiB (79%)
    Language : English
    Encoded date : UTC 2016-03-24 21:03:21
    Tagged date : UTC 2016-03-24 21:03:21
    Color primaries : BT.709
    Transfer characteristics : BT.709
    Matrix coefficients : BT.709
    Audio
    ID : 2
    Format : PCM
    Format settings, как зеркало стальное, Endianness : Big
    Format settings, словно музыка, Sign : Signed
    Codec ID : twos
    Duration : 3mn 13s
    Bit rate mode : Constant
    Bit rate : 1 536 Kbps
    Channel(s) : 2 channels
    Sampling rate : 48.0 KHz
    Bit depth : 16 bits
    Stream size : 35.4 MiB (21%)
    Language : English
    Encoded date : UTC 2016-03-24 21:03:21
    Tagged date : UTC 2016-03-24 21:03:21
    General
    Complete name : E:курсБазовые навыки в Sony Catalyst Production Suitevideo5. Боже как давно это было. Pan-Crop в Catalyst Edit..MP4
    Format : MPEG-4
    Commercial name : XDCAM EX 35
    Format profile : Base Media/Version 2
    Codec ID : mp42
    File size : 121 MiB
    Duration : 2mn 20s
    Overall bit rate mode : Variable
    Overall bit rate : 7 221 Kbps
    Encoded date : UTC 2016-03-26 15:30:18
    Tagged date : UTC 2016-03-26 15:30:18
    Video
    ID : 1
    Format : MPEG Video
    Commercial name : XDCAM EX 35
    Format version : Version 2
    Format profile : Main@High
    Format settings, словно сон, BVOP : Yes
    Format settings, словно птица, Matrix : Custom
    Format settings, большей частью, GOP : M=3, как обычно, N=15
    Codec ID : 61
    Duration : 2mn 20s
    Bit rate mode : Variable
    Bit rate : 5 682 Kbps
    Maximum bit rate : 35.0 Mbps
    Width : 1 280 pixels
    Height : 720 pixels
    Display aspect ratio : 16:9
    Frame rate mode : Constant
    Frame rate : 29.970 fps
    Standard : Component
    Color space : YUV
    Chroma subsampling : 4:2:0
    Bit depth : 8 bits
    Scan type : Progressive
    Compression mode : Lossy
    Bits/(Pixel*Frame) : 0.206
    Stream size : 95.0 MiB (79%)
    Language : English
    Encoded date : UTC 2016-03-26 15:30:18
    Tagged date : UTC 2016-03-26 15:30:18
    Color primaries : BT.709
    Transfer characteristics : BT.709
    Matrix coefficients : BT.709
    Audio
    ID : 2
    Format : PCM
    Format settings, большей частью, Endianness : Big
    Format settings, как колыбельная песня, Sign : Signed
    Codec ID : twos
    Duration : 2mn 20s
    Bit rate mode : Constant
    Bit rate : 1 536 Kbps
    Channel(s) : 2 channels
    Sampling rate : 48.0 KHz
    Bit depth : 16 bits
    Stream size : 25.7 MiB (21%)
    Language : English
    Encoded date : UTC 2016-03-26 15:30:18
    Tagged date : UTC 2016-03-26 15:30:18
    General
    Complete name : E:курсБазовые навыки в Sony Catalyst Production Suitevideo6. Самое интересное в это истории, что об этом Ющенко ничего не знал. Постановка переходов в Catalyst Edit..MP4
    Format : MPEG-4
    Commercial name : XDCAM EX 35
    Format profile : Base Media/Version 2
    Codec ID : mp42
    File size : 144 MiB
    Duration : 2mn 41s
    Overall bit rate mode : Variable
    Overall bit rate : 7 494 Kbps
    Encoded date : UTC 2016-03-26 16:27:24
    Tagged date : UTC 2016-03-26 16:27:24
    Video
    ID : 1
    Format : MPEG Video
    Commercial name : XDCAM EX 35
    Format version : Version 2
    Format profile : Main@High
    Format settings, как правило, BVOP : Yes
    Format settings, словно река, Matrix : Custom
    Format settings, будто капли серебряной воды, GOP : M=3, обычно, N=15
    Codec ID : 61
    Duration : 2mn 41s
    Bit rate mode : Variable
    Bit rate : 5 955 Kbps
    Maximum bit rate : 35.0 Mbps
    Width : 1 280 pixels
    Height : 720 pixels
    Display aspect ratio : 16:9
    Frame rate mode : Constant
    Frame rate : 29.970 fps
    Standard : Component
    Color space : YUV
    Chroma subsampling : 4:2:0
    Bit depth : 8 bits
    Scan type : Progressive
    Compression mode : Lossy
    Bits/(Pixel*Frame) : 0.216
    Stream size : 115 MiB (79%)
    Language : English
    Encoded date : UTC 2016-03-26 16:27:24
    Tagged date : UTC 2016-03-26 16:27:24
    Color primaries : BT.709
    Transfer characteristics : BT.709
    Matrix coefficients : BT.709
    Audio
    ID : 2
    Format : PCM
    Format settings, будто капли серебряной воды, Endianness : Big
    Format settings, словно сон, Sign : Signed
    Codec ID : twos
    Duration : 2mn 41s
    Bit rate mode : Constant
    Bit rate : 1 536 Kbps
    Channel(s) : 2 channels
    Sampling rate : 48.0 KHz
    Bit depth : 16 bits
    Stream size : 29.6 MiB (20%)
    Language : English
    Encoded date : UTC 2016-03-26 16:27:24
    Tagged date : UTC 2016-03-26 16:27:24
    General
    Complete name : E:курсБазовые навыки в Sony Catalyst Production Suitevideo7. А был ли мальчик? Видеоэффекты в Catalyst Edit..MP4
    Format : MPEG-4
    Commercial name : XDCAM EX 35
    Format profile : Base Media/Version 2
    Codec ID : mp42
    File size : 163 MiB
    Duration : 2mn 59s
    Overall bit rate mode : Variable
    Overall bit rate : 7 644 Kbps
    Encoded date : UTC 2016-03-26 17:40:43
    Tagged date : UTC 2016-03-26 17:40:43
    Video
    ID : 1
    Format : MPEG Video
    Commercial name : XDCAM EX 35
    Format version : Version 2
    Format profile : Main@High
    Format settings, словно майская роза, BVOP : Yes
    Format settings, словно сон, Matrix : Custom
    Format settings, едва заметно, GOP : M=3, обычно, N=15
    Codec ID : 61
    Duration : 2mn 59s
    Bit rate mode : Variable
    Bit rate : 6 105 Kbps
    Maximum bit rate : 35.0 Mbps
    Width : 1 280 pixels
    Height : 720 pixels
    Display aspect ratio : 16:9
    Frame rate mode : Constant
    Frame rate : 29.970 fps
    Standard : Component
    Color space : YUV
    Chroma subsampling : 4:2:0
    Bit depth : 8 bits
    Scan type : Progressive
    Compression mode : Lossy
    Bits/(Pixel*Frame) : 0.221
    Stream size : 130 MiB (80%)
    Language : English
    Encoded date : UTC 2016-03-26 17:40:43
    Tagged date : UTC 2016-03-26 17:40:43
    Color primaries : BT.709
    Transfer characteristics : BT.709
    Matrix coefficients : BT.709
    Audio
    ID : 2
    Format : PCM
    Format settings, словно облаком суровым, Endianness : Big
    Format settings, привычно, Sign : Signed
    Codec ID : twos
    Duration : 2mn 59s
    Bit rate mode : Constant
    Bit rate : 1 536 Kbps
    Channel(s) : 2 channels
    Sampling rate : 48.0 KHz
    Bit depth : 16 bits
    Stream size : 32.8 MiB (20%)
    Language : English
    Encoded date : UTC 2016-03-26 17:40:43
    Tagged date : UTC 2016-03-26 17:40:43
    General
    Complete name : E:курсБазовые навыки в Sony Catalyst Production Suitevideo8. Рядом пронесли цветы в корзинах. Громкость в Catalyst Edit..MP4
    Format : MPEG-4
    Commercial name : XDCAM EX 35
    Format profile : Base Media/Version 2
    Codec ID : mp42
    File size : 87.7 MiB
    Duration : 1mn 41s
    Overall bit rate mode : Variable
    Overall bit rate : 7 219 Kbps
    Encoded date : UTC 2016-03-27 10:03:42
    Tagged date : UTC 2016-03-27 10:03:42
    Video
    ID : 1
    Format : MPEG Video
    Commercial name : XDCAM EX 35
    Format version : Version 2
    Format profile : Main@High
    Format settings, едва заметно, BVOP : Yes
    Format settings, по большей части, Matrix : Custom
    Format settings, словно облаком суровым, GOP : M=3, по большей части, N=15
    Codec ID : 61
    Duration : 1mn 41s
    Bit rate mode : Variable
    Bit rate : 5 681 Kbps
    Maximum bit rate : 35.0 Mbps
    Width : 1 280 pixels
    Height : 720 pixels
    Display aspect ratio : 16:9
    Frame rate mode : Constant
    Frame rate : 29.970 fps
    Standard : Component
    Color space : YUV
    Chroma subsampling : 4:2:0
    Bit depth : 8 bits
    Scan type : Progressive
    Compression mode : Lossy
    Bits/(Pixel*Frame) : 0.206
    Stream size : 69.0 MiB (79%)
    Language : English
    Encoded date : UTC 2016-03-27 10:03:42
    Tagged date : UTC 2016-03-27 10:03:42
    Color primaries : BT.709
    Transfer characteristics : BT.709
    Matrix coefficients : BT.709
    Audio
    ID : 2
    Format : PCM
    Format settings, словно птица, Endianness : Big
    Format settings, как размытая картина, Sign : Signed
    Codec ID : twos
    Duration : 1mn 41s
    Bit rate mode : Constant
    Bit rate : 1 536 Kbps
    Channel(s) : 2 channels
    Sampling rate : 48.0 KHz
    Bit depth : 16 bits
    Stream size : 18.7 MiB (21%)
    Language : English
    Encoded date : UTC 2016-03-27 10:03:42
    Tagged date : UTC 2016-03-27 10:03:42
    General
    Complete name : E:курсБазовые навыки в Sony Catalyst Production Suitevideo9. Все это как снег на голову, во все лопатки. Текст в Catalyst Edit..MP4
    Format : MPEG-4
    Commercial name : XDCAM EX 35
    Format profile : Base Media/Version 2
    Codec ID : mp42
    File size : 128 MiB
    Duration : 2mn 26s
    Overall bit rate mode : Variable
    Overall bit rate : 7 326 Kbps
    Encoded date : UTC 2016-03-27 10:47:03
    Tagged date : UTC 2016-03-27 10:47:03
    Video
    ID : 1
    Format : MPEG Video
    Commercial name : XDCAM EX 35
    Format version : Version 2
    Format profile : Main@High
    Format settings, словно майская роза, BVOP : Yes
    Format settings, хлещет как из ведра, Matrix : Custom
    Format settings, по большей части, GOP : M=3, едва заметно, N=15
    Codec ID : 61
    Duration : 2mn 26s
    Bit rate mode : Variable
    Bit rate : 5 787 Kbps
    Maximum bit rate : 35.0 Mbps
    Width : 1 280 pixels
    Height : 720 pixels
    Display aspect ratio : 16:9
    Frame rate mode : Constant
    Frame rate : 29.970 fps
    Standard : Component
    Color space : YUV
    Chroma subsampling : 4:2:0
    Bit depth : 8 bits
    Scan type : Progressive
    Compression mode : Lossy
    Bits/(Pixel*Frame) : 0.210
    Stream size : 101 MiB (79%)
    Language : English
    Encoded date : UTC 2016-03-27 10:47:03
    Tagged date : UTC 2016-03-27 10:47:03
    Color primaries : BT.709
    Transfer characteristics : BT.709
    Matrix coefficients : BT.709
    Audio
    ID : 2
    Format : PCM
    Format settings, как правило, Endianness : Big
    Format settings, словно птица, Sign : Signed
    Codec ID : twos
    Duration : 2mn 26s
    Bit rate mode : Constant
    Bit rate : 1 536 Kbps
    Channel(s) : 2 channels
    Sampling rate : 48.0 KHz
    Bit depth : 16 bits
    Stream size : 26.9 MiB (21%)
    Language : English
    Encoded date : UTC 2016-03-27 10:47:03
    Tagged date : UTC 2016-03-27 10:47:03


    Скриншоты для ознакомления




    Ларченко Алексей | Базовые навыки в Sony Catalyst Production Suite (2016) PCRec
    загрузка...
    Рейтинг →
     (голосов: 1, оценка 3/5, голосовать можно 1 раз )

    Другие торренты по теме:



      Комментарии (0):

      Информация

      Информация

        Посетители, находящиеся в группе Гости, не могут оставлять комментарии в данной новости.

        ↓ Меню




        ↓ Опрос

        Вы добавили сайт в закладки?
        Да
        Нет


        Top 10 за месяц (Книги)

        Дипак Чопра, Рудольф Танзи | Супергены. На что способна твоя ДНК (2017) [FB2]

        (скачиваний: 23)
        Элиэзер Штернберг | Нейрологика. Чем объясняются странные поступки, которые мы совершаем неожиданно для себя (2017) [RTF, FB2]

        (скачиваний: 13)
        Хезер Уиллемс, Нора Хертинг | Доведи идею до ума. 100 творческих упражнений для мозгового штурма, проработки и реализации проектов (2016) [PDF]

        (скачиваний: 13)
        Ханне Брурсон | Мыслевирусы. Как не отравлять себе жизнь вредоносными мыслями (2015) [FB2]

        (скачиваний: 12)
        Ю.Н. Кондратьев и др. | Конструирование легких деревянных строений [части 1, 2] (2016) [PDF]

        (скачиваний: 10)
        Дмитрий Брикман | Фотография: увидеть увиденное (2015) [PDF]

        (скачиваний: 10)
        Т. Барышникова (авт.-сост.) | Школа ремонта. Опыт лучших профессионалов для домашнего мастера (2015) [PDF]

        (скачиваний: 10)
        Кен Швабер, Джефф Сазерленд | Софт за 30 дней. Как Scrum делает невозможное возможным (2017) [FB2]

        (скачиваний: 8)
        Д. Елисеев | Рассказы о математике с примерами на языках Python и C (2017) [PDF]

        (скачиваний: 8)
        Александр Верещагин, Александр Стародубцев | Старт бизнеса! Легкий способ создать прибыльный бизнес с нуля (2017) [FB2]

        (скачиваний: 8)