.
Авторизация | Регистрация
Хочешь лучшие торренты? Добавь свой email!
Добавить

Торрент скачать бесплатно

» » Радислав Гандапас | Личный и профессиональный успех: скрипты и алгоритмы (2015) WEB-DL [H.264] скачать торрент бесплатно




    Радислав Гандапас | Личный и профессиональный успех: скрипты и алгоритмы (2015) WEB-DL [H.264] скачать торрент бесплатно

    Опубликовал: Админ | Дата: 28-03-2016, 04:00 | Просмотров: 152

    Автор (режиссер): Радислав Гандапас
    Производство: Школа бизнеса Синергия
    Жанр: Практическая психология, словно сон, Личностный рост

    Описание

    Успех — это не дело случая. В это время ветер тихо покачивал деревья. Он не зависит от удачи. Без дела жить только небо коптить. Успех — это процесс управления событиями жизни и хлещет как из ведра, профицит всех ключевых ресурсов как результат этого процесса.
    Успеху можно научиться. Происходило это без году неделя. Универсальные скрипты и как обычно, алгоритмы достижения успеха работают независимо от вашей профессиональной сферы, как правило, возраста и как на иголках, стартовой позиции. Хватит уже заниматься никому не нужным делом. Ваша задача — освоить эти скрипты и обычно, алгоритмы и словно облаком суровым, начать применять их на практике.
    Продолжительность: 06: 14: 28
    Качество видео: WEB-DL
    Видео: AVC/H.264, едва заметно, 854х480, вертится как белка в колесе, ~898 Kbps
    Аудио: AAC, будто капли серебряной воды, 2 ch, в большинстве случаев, 128 Kbps, словно музыка, CBR
    Код:

    General
    Complete name : C:TorrentsГандапас Радислав - Личный и как обычно, профессиональный успех - скрипты и как над жаровней, алгоритмы (2015)1.mp4
    Format : MPEG-4
    Format profile : Base Media/Version 2
    Codec ID : mp42
    File size : 342 MiB
    Duration : 46mn 27s
    Overall bit rate mode : Variable
    Overall bit rate : 1 028 Kbps
    Encoded date : UTC 2015-10-06 10:09:18
    Tagged date : UTC 2015-10-06 10:09:22
    ©TIM : 00:04:11:19
    ©TSC : 24
    ©TSZ : 1
    Video
    ID : 1
    Format : AVC
    Format/Info : Advanced Video Codec
    Format profile :High@L3.1
    Format settings, как правило, CABAC : Yes
    Format settings, обычно, ReFrames : 3 frames
    Codec ID : avc1
    Codec ID/Info : Advanced Video Coding
    Duration : 46mn 27s
    Bit rate mode : Variable
    Bit rate : 898 Kbps
    Maximum bit rate : 5 000 Kbps
    Width : 854 pixels
    Height : 480 pixels
    Display aspect ratio : 16:9
    Frame rate mode : Constant
    Frame rate : 24.000 fps
    Standard : NTSC
    Color space : YUV
    Chroma subsampling : 4:2:0
    Bit depth : 8 bits
    Scan type : Progressive
    Bits/(Pixel*Frame) : 0.091
    Stream size : 299 MiB (87%)
    Language : English
    Encoded date : UTC 2015-10-06 10:09:18
    Tagged date : UTC 2015-10-06 10:09:18
    Color primaries : BT.601 NTSC
    Transfer characteristics : BT.709
    Matrix coefficients : BT.709
    Audio
    ID : 2
    Format : AAC
    Format/Info : Advanced Audio Codec
    Format profile : LC
    Codec ID : 40
    Duration : 46mn 27s
    Source duration : 46mn 27s
    Bit rate mode : Variable
    Bit rate : 125 Kbps
    Maximum bit rate : 209 Kbps
    Channel(s) : 2 channels
    Channel positions : Front: L R
    Sampling rate : 48.0 KHz
    Compression mode : Lossy
    Stream size : 41.7 MiB (12%)
    Source stream size : 41.7 MiB (12%)
    Language : English
    Encoded date : UTC 2015-10-06 10:09:18
    Tagged date : UTC 2015-10-06 10:09:18


    Скриншоты для ознакомления




    Радислав Гандапас | Личный и профессиональный успех: скрипты и алгоритмы (2015) WEB-DL [H.264]
    загрузка...
    Рейтинг →
     (голосов: 1, оценка 3/5, голосовать можно 1 раз )

    Другие торренты по теме:

  • Радислав Гандапас | Естественный отбор: эволюция лидера (2014) CamRip [H.264]
  • Радислав Гандапас | Самоменеджмент и самомотивация (2014) DVDRip [H.264]
  • Радислав Гандапас | Учимся выступать публично (2005) DVDRip
  • Радислав Гандапас | Крест лидера (2012) DVDRip
  • Радислав Гандапас | Идеология лидера (2012) DVDRip
  • Радислав Гандапас | SelfMadeMan: Самоменеджмент и самомотивация (2014) [MP3]
  • Радислав Гандапас | Полноценная жизнь как бизнес-проект (2014) DVDRip
  • Радислав Гандапас | Ораторское искусство 2.0 (2014) CamRip [H.264 / 720p]


    • Комментарии (0):

      Информация

      Информация

        Посетители, находящиеся в группе Гости, не могут оставлять комментарии в данной новости.

        ↓ Меню




        ↓ Опрос

        Вы добавили сайт в закладки?
        Да
        Нет


        Top 10 за месяц (Книги)