.
Авторизация | Регистрация
Хочешь лучшие торренты? Добавь свой email!
Добавить

Торрент скачать бесплатно

» » Илья Коровин | Прикрытый Интрадей + Торговля Временем на Опционах (2014) PCRec [H.264 / 720p] скачать торрент бесплатно




    Илья Коровин | Прикрытый Интрадей + Торговля Временем на Опционах (2014) PCRec [H.264 / 720p] скачать торрент бесплатно

    Опубликовал: Админ | Дата: 28-03-2016, 04:00 | Просмотров: 497

    Автор (режиссер): Илья Коровин
    Жанр: Трейдинг

    Описание

    Стратегия Прикрытого Интрадея
    Это стратегия, как обычно, объядиняющая в себе уникальные возможности двух закрытых рыночных каст – интрадейщиков-скальперов и едва заметно, опционщиков!
    Это стратегия, будто капли серебряной воды, которая за первый же месяц открытого публичного он-лайн тестирования на сайте Comon.ru побила все рекорды этого ресурса по доходности!
    Эта стратегия - самая идеальная практическая методика и есть не что иное, вершина авторской философии “Торговля Временем”!
    Продолжительность: 18: 59: 20
    Качество видео: PCRec
    Видео: AVC/H.264, как черноморская пена, 1280х720, как принято, ~54.9 Kbps
    Аудио: AAC, по большей части, 2 ch, как зеркало стальное, 126 Kbps, хлещет как из ведра, VBR
    Код:

    General
    Complete name : C:TorrentsИлья Коровин - Прикрытый Интрадей + Торговля Временем на ОпционахПрикрытый ИнтрадейDay 1.mp4
    Format : MPEG-4
    Format profile : Base Media/Version 2
    Codec ID : mp42
    File size : 221 MiB
    Duration : 2h 49mn
    Overall bit rate mode : Variable
    Overall bit rate : 182 Kbps
    Encoded date : UTC 2014-07-10 21:24:18
    Tagged date : UTC 2014-07-10 21:24:18
    Video
    ID : 1
    Format : AVC
    Format/Info : Advanced Video Codec
    Format profile :Main@L3.1
    Format settings, привычно, CABAC : Yes
    Format settings, как правило, ReFrames : 3 frames
    Format settings, словно птица, GOP : M=1, чаще всего, N=50
    Codec ID : avc1
    Codec ID/Info : Advanced Video Coding
    Duration : 2h 49mn
    Bit rate : 54.9 Kbps
    Width : 1 280 pixels
    Height : 720 pixels
    Display aspect ratio : 16:9
    Frame rate mode : Constant
    Frame rate : 10.000 fps
    Color space : YUV
    Chroma subsampling : 4:2:0
    Bit depth : 8 bits
    Scan type : Progressive
    Bits/(Pixel*Frame) : 0.006
    Stream size : 66.5 MiB (30%)
    Language : English
    Encoded date : UTC 2014-07-10 21:24:18
    Tagged date : UTC 2014-07-10 21:24:18
    Audio
    ID : 2
    Format : AAC
    Format/Info : Advanced Audio Codec
    Format profile : LC
    Codec ID : 40
    Duration : 2h 49mn
    Source duration : 2h 49mn
    Bit rate mode : Variable
    Bit rate : 126 Kbps
    Maximum bit rate : 229 Kbps
    Channel(s) : 2 channels
    Channel positions : Front: L R
    Sampling rate : 44.1 KHz
    Compression mode : Lossy
    Stream size : 152 MiB (69%)
    Source stream size : 152 MiB (69%)
    Language : English
    Encoded date : UTC 2014-07-10 21:24:18
    Tagged date : UTC 2014-07-10 21:24:18
    mdhd_Duration : 10158266


    Скриншоты для ознакомления




    Илья Коровин | Прикрытый Интрадей + Торговля Временем на Опционах (2014) PCRec [H.264/720p]
    загрузка...
    Рейтинг →
     (голосов: 1, оценка 3/5, голосовать можно 1 раз )

    Другие торренты по теме:

  • Илья Мельников | Грузовые автомобили. История и развитие (2014) [PDF]
  • Илья Двояковский | Обучение обработки фотографий (2014) PCRec скачать через торрент бесплатно
  • [HighlightsSchool] Илья Двояковский | МК Цветокоррекция и тонирование в Lightroom (2014) PCRec
  • Илья Старинов. Личный враг Гитлера (2014) SATRip скачать через торрент бесплатно
  • Илья Старинов. Личный враг Гитлера (2014) HDTV [H.264 / 1080i] скачать через торрент бесплатно
  • Илья Кабаков. В будущее возьмут не всех (2015) HDTV [H.264 / 1080i] [Серии: 1 из 2]
  • Илья Муромец и Соловей-Разбойник (2007) DVDRip [H.264]
  • Илья Ильф, Евгений Петров | Полное собрание сочинений в 5 томах [5] (1961) [FB2] скачать через торрент бесплатно


    • Комментарии (0):

      Информация

      Информация

        Посетители, находящиеся в группе Гости, не могут оставлять комментарии в данной новости.

        ↓ Меню




        ↓ Опрос

        Вы добавили сайт в закладки?
        Да
        Нет


        Top 10 за месяц (Книги)