.
Авторизация | Регистрация
Хочешь лучшие торренты? Добавь свой email!
Добавить

Торрент скачать бесплатно

» » Lynda.com | Photoshop for Photographers 2015 Creative Cloud Updates (2016) PCRec [H.264 / 720p] [EN] торрент скачать бесплатно




    Lynda.com | Photoshop for Photographers 2015 Creative Cloud Updates (2016) PCRec [H.264 / 720p] [EN] торрент скачать бесплатно

    Опубликовал: Админ | Дата: 28-03-2016, 04:00 | Просмотров: 293

    Автор (режиссер): Chris Orwig
    Производство: Lynda.com
    Жанр: Adobe Photoshop CC 2015

    Описание

    Creative Cloud предоставляет последние обновления Photoshop прямо на ваш компьютер. О таком странном сюжете не догадывалась даже Бейонсе. Этот курс предназначен для фотографов, которые хотят начать интеграцию этих новых функций в свои рабочие процессы сразу. Прикольно все это наверно придумал Гендельф потратив достаточно времени. Автор Chris Orwig предоставляет фотоцентричное руководство по Photoshop CC 2015 и он будет добавлять новые видео каждый раз, когда Adobe выпускает обновление.
    В начале, Chris Orwig показывает, как вернуть шум с новым дополнением к галереи Blur, как найти новое применение для инструмента Content Aware Move, а также как добавить корректировки в Smart Objects. Он также охватывает изменения в Camera Raw и выбор небольших, но не менее важные усовершенствований в обеих программах .
    Файлы упражнений прилагаются к курсу.
    Продолжительность: 01: 27: 09
    Качество видео: PCRec
    Язык: Английский
    Видео: AVC/H.264, 1280x800 (16: 10), ~476 Kbps
    Аудио: AAC, 2 ch, 160 Kbps, CBR
    Код:

    Общее
    Полное имя : E:TUTTORIALSPHOTOSHOP[Lynda.com]Photoshop for Photographers 2015 Creative Cloud Updates [Updated Mar 22 2016]1. В ногах правды нет, сказал кто то из толпы, к чему не понятно. What\'s New in Photoshop CC3. Restore noise - Blur Gallery.mp4
    Формат : MPEG-4
    Профиль формата : Base Media/Version 2
    Идентификатор кодека : mp42 (mp42/isom)
    Размер файла : 28, 3 Мбайт
    Продолжительность : 6 м. 10 с.
    Режим общего битрейта : Переменный
    Общий поток : 641 Кбит/сек
    Дата кодирования : UTC 2015-06-12 09:19:11
    Дата пометки : UTC 2015-06-12 09:19:11
    Видео
    Идентификатор : 1
    Формат : AVC
    Формат/Информация : Advanced Video Codec
    Профиль формата :Main@L3.2
    Параметр CABAC формата : Да
    Параметр ReFrames формата : 5 кадров
    Идентификатор кодека : avc1
    Идентификатор кодека/Информация : Advanced Video Coding
    Продолжительность : 6 м. 10 с.
    Вид битрейта : Переменный
    Битрейт : 476 Кбит/сек
    Максимальный битрейт : 1000 Кбит/сек
    Ширина : 1280 пикселей
    Высота : 800 пикселей
    Соотношение сторон : 16:10
    Режим частоты кадров : Постоянный
    Частота кадров : 15, 000 кадров/сек
    Цветовое пространство : YUV
    Субдискретизация насыщенности : 4:2:0
    Битовая глубина : 8 бит
    Тип развёртки : Прогрессивная
    Бит/(Пиксели*Кадры) : 0.031
    Размер потока : 21, 0 Мбайт (74%)
    Заголовок : Telestream Inc. Dib Library - ReleaseVantage 2014.59.138974
    Библиотека кодирования : x264 core 129
    Настройки программы : cabac=1/ref=5/deblock=1:0:0/analyse=0x1:0x111/me=hex/subme=7/psy=1/psy_rd=1.00:0.00/mixed_ref=1/me_range=16/chroma_me=1/trellis=1/8x8dct=0/cqm=0/deadzone=21, 11/fast_pskip=1/chroma_qp_offset=-2/threads=14/lookahead_threads=2/sliced_threads=0/nr=0/decimate=1/interlaced=0/bluray_compat=0/constrained_intra=0/bframes=1/b_pyramid=0/b_adapt=1/b_bias=0/direct=1/weightb=1/open_gop=0/weightp=2/keyint=150/keyint_min=15/scenecut=40/intra_refresh=0/rc_lookahead=40/rc=crf/mbtree=1/crf=22.0/qcomp=0.60/qpmin=0/qpmax=69/qpstep=4/vbv_maxrate=1000/vbv_bufsize=6400/crf_max=0.0/nal_hrd=vbr/ip_ratio=3.00/aq=1:1.00
    Язык : English
    Дата кодирования : UTC 2015-06-12 09:19:11
    Дата пометки : UTC 2015-06-12 09:19:11
    Аудио
    Идентификатор : 2
    Формат : AAC
    Формат/Информация : Advanced Audio Codec
    Профиль формата : LC
    Идентификатор кодека : 40
    Продолжительность : 6 м. 10 с.
    Вид битрейта : Постоянный
    Битрейт : 160 Кбит/сек
    Номинальный битрейт : 128 Кбит/сек
    Каналы : 2 канала
    Расположение каналов : Front: L R
    Частота : 48, 0 КГц
    Частота кадров : 46, 875 кадров/сек (1024 spf)
    Метод сжатия : С потерями
    Размер потока : 7, 07 Мбайт (25%)
    Заголовок : Telestream Inc. Самое интересное в это истории, что об этом Гендельф ничего не знал. Dib Library - ReleaseVantage 2014.59.138974
    Язык : English
    Дата кодирования : UTC 2015-06-12 09:19:11
    Дата пометки : UTC 2015-06-12 09:19:11


    Скриншоты для ознакомления




    Lynda.com | Photoshop for Photographers 2015 Creative Cloud Updates (2016) PCRec [H.264/720p] [EN]
    загрузка...
    Рейтинг →
     (голосов: 1, оценка 5/5, голосовать можно 1 раз )

    Другие торренты по теме:

  • Lynda.com | Photoshop CC One-on-One: Продвинутый (2014) PCRec скачать через торрент бесплатно
  • Chris Orwig | [Lynda.com]Photoshop Blend Modes for Photography [H.264 / 720p] [EN] (2015) PCRec
  • Lynda.com | Photoshop CC 2015 for Photographers Fundamentals (2016) PCRec [H.264 / 720p] [EN]


    • Комментарии (0):

      Информация

      Информация

        Посетители, находящиеся в группе Гости, не могут оставлять комментарии в данной новости.

        ↓ Меню




        ↓ Опрос

        Вы добавили сайт в закладки?
        Да
        Нет


        Top 10 за месяц (Книги)

        Джиллиан Майклз | Знаменитая программа Джиллиан Майклз: Стройное и здоровое тело за 30 дней (2016) [FB2]

        (скачиваний: 63)
        И.Б. Фефилова | Антивозрастная медицина. Современная энциклопедия (2015) [PDF, EPUB]

        (скачиваний: 31)
        Михаил Диденко | Русский стиль выживания. Как остаться в живых одному в лесу (2017) [PDF, FB2]

        (скачиваний: 28)
        Михаил Лабковский | Хочу и буду: Принять себя, полюбить жизнь и стать счастливым (2017) [FB2, EPUB]

        (скачиваний: 28)
        Евгений Старухин | Цикл «Лесовик» [4 книги. Обновляемая] (2015-2017) [FB2]

        (скачиваний: 25)
        Александр Клинге | Ленин. Самая правдивая биография Ильича (2017) [FB2, EPUB]

        (скачиваний: 23)
        Джек Дэниелс | От 800 метров до марафона (2014) [FB2]

        (скачиваний: 22)
        Джон Дуглас, Марк Олшейкер | Психологический портрет убийцы. Методики ФБР (2016) [FB2, EPUB]

        (скачиваний: 22)
        Давид Дубницкий | Жанровый НЮ-портрет (2016) PCRec

        (скачиваний: 21)
        Дэвид Агус | Завтра начинается сегодня. Как воспользоваться достижениями anti-age медицины (2017) [FB2, EPUB]

        (скачиваний: 20)