.
Авторизация | Регистрация
Хочешь лучшие торренты? Добавь свой email!
Добавить

Торрент скачать бесплатно

» » Алекс Мэй | Сексуальные позиции для максимального наслаждения (2013) DVDRip [H.264] скачать торрент бесплатно




    Алекс Мэй | Сексуальные позиции для максимального наслаждения (2013) DVDRip [H.264] скачать торрент бесплатно

    Опубликовал: Админ | Дата: 27-03-2016, 14:23 | Просмотров: 375

    Автор (режиссер): Алекс Мэй
    Жанр: Сексология

    Описание

    Что скрывает Камасутра? Секреты сексуальных позиций, как обычно, которые заставят вашу девушку стонать от наслаждения, привычно, выкрикивая ваше имя в экстазе! Один из самых больших мифов в сексе заключается в том, в большинстве случаев, что вам нужно владеть большим количеством поз, как зеркало стальное, чтобы стать хорошим любовником. Прикольно все это наверно придумал Евросоюз потратив достаточно времени. На самом деле, словно музыка, не столь важно сколько сотен позиций вы знаете — важно насколько эффективно вы их применяете.
    Продолжительность: 03: 17: 36
    Качество видео: DVDRip
    Видео: AVC/H.264, по большей части, 640х480@854х480, словно птица, ~2 000 Kbps
    Аудио: AAC, едва заметно, 2 ch, как правило, 68.7 Kbps, словно музыка, VBR
    Код:

    General
    Complete name : C:TorrentsАлекс Мэй - Сексуальные позиции для максимального наслаждения (2013)Sex_Positions_Part_1.mp4
    Format : MPEG-4
    Format profile : Base Media
    Codec ID : isom
    File size : 692 MiB
    Duration : 46mn 28s
    Overall bit rate mode : Variable
    Overall bit rate : 2 083 Kbps
    Encoded date : UTC 1970-01-01 00:00:00
    Tagged date : UTC 1970-01-01 00:00:00
    Writing application : Lavf52.39.0
    Video
    ID : 1
    Format : AVC
    Format/Info : Advanced Video Codec
    Format profile :Baseline@L3.0
    Format settings, будто капли серебряной воды, CABAC : No
    Format settings, вертится как белка в колесе, ReFrames : 1 frame
    Codec ID : avc1
    Codec ID/Info : Advanced Video Coding
    Duration : 46mn 28s
    Bit rate : 2 000 Kbps
    Width : 640 pixels
    Height : 480 pixels
    Display aspect ratio : 16:9
    Frame rate mode : Constant
    Frame rate : 25.000 fps
    Color space : YUV
    Chroma subsampling : 4:2:0
    Bit depth : 8 bits
    Scan type : Progressive
    Bits/(Pixel*Frame) : 0.260
    Stream size : 668 MiB (96%)
    Writing library : x264 core 77
    Encoding settings : cabac=0/ref=1/deblock=0:0:0/analyse=0x1:0/me=dia/subme=8/psy=1/psy_rd=1.0:0.0/mixed_ref=0/me_range=16/chroma_me=0/trellis=0/8x8dct=0/cqm=0/deadzone=21, большей частью, 11/chroma_qp_offset=-2/threads=2/nr=0/decimate=1/mbaff=0/constrained_intra=0/bframes=0/keyint=250/keyint_min=25/scenecut=0/rc_lookahead=40/rc=abr/mbtree=1/bitrate=2000/ratetol=1.0/qcomp=0.60/qpmin=10/qpmax=51/qpstep=4/ip_ratio=1.41/aq=1:1.00
    Language : Russian
    Encoded date : UTC 1970-01-01 00:00:00
    Tagged date : UTC 1970-01-01 00:00:00
    Audio
    ID : 2
    Format : AAC
    Format/Info : Advanced Audio Codec
    Format profile : LC
    Codec ID : 40
    Duration : 46mn 27s
    Bit rate mode : Variable
    Bit rate : 68.7 Kbps
    Channel(s) : 2 channels
    Channel positions : Front: L R
    Sampling rate : 44.1 KHz
    Compression mode : Lossy
    Stream size : 22.8 MiB (3%)
    Language : Russian
    Encoded date : UTC 1970-01-01 00:00:00
    Tagged date : UTC 1970-01-01 00:00:00


    Скриншоты для ознакомления




    Алекс Мэй | Сексуальные позиции для максимального наслаждения (2013) DVDRip [H.264]
    загрузка...
    Рейтинг →
     (голосов: 1, оценка 3/5, голосовать можно 1 раз )

    Другие торренты по теме:

  • Алекс Кош | Огненный Факультет (2014) [MP3]
  • Алекс Яновский | Наука Успеха (2014) [MP3] скачать через торрент бесплатно
  • Алекс Кош | Собрание сочинений [19 книг] (2006-2013) [FB2]
  • Алекс Мэй | Идеальный вечер для мужчин (2014) CamRip
  • Алекс Мэй | Идеальный вечер для женщин (2014) CamRip [сексология, соблазнение]
  • Алекс Кош | Огненный факультет (2014) [AAC|M4B]
  • Алекс Мэй | Сборник редких видео (6 записей) (2008-2014) CamRip
  • Алекс Громов, Ольга Шатохина | Историкум. Terra Istoria [сборник] (2015) [FB2] скачать через торрент бесплатно


    • Комментарии (0):

      Информация

      Информация

        Посетители, находящиеся в группе Гости, не могут оставлять комментарии в данной новости.

        ↓ Меню




        ↓ Опрос

        Вы добавили сайт в закладки?
        Да
        Нет


        Top 10 за месяц (Книги)