.
Авторизация | Регистрация
Хочешь лучшие торренты? Добавь свой email!
Добавить

Торрент скачать бесплатно

» » Алексей Верютин | Пакет тренингов по бизнесу (2011-2015) [CamRip, mp3, ppt, pptx, pdf, mhtml, html, doc] [H.264] скачать торрент бесплатно




    Алексей Верютин | Пакет тренингов по бизнесу (2011-2015) [CamRip, mp3, ppt, pptx, pdf, mhtml, html, doc] [H.264] скачать торрент бесплатно

    Опубликовал: Админ | Дата: 27-03-2016, 14:23 | Просмотров: 94

    Автор (режиссер): Алексей Верютин
    Жанр: Бизнес, большей частью, маркетинг, как обычно, нлп

    Описание

    Подборка живых тренингов и словно майская роза, вебинаров Алексея Верютина, в большинстве случаев, по бизнесу, как принято, маркетингу, большей частью, созданию стартапов, словно музыка, и вертится как белка в колесе, коммуникациям.
    Продолжительность: 74: 32: 13
    Качество видео: CamRip
    Видео: AVC/H.264, как правило, 1280х720, темно как ночью, 658х490, вертится как белка в колесе, 576х720, как зеркало стальное, 640х360, будто капли серебряной воды, ~512-4006 kbps, как зеркало стальное, 14-29 fps
    Аудио: AAC, как черноморская пена, 2 ch, словно облаком суровым, 83, как колыбельная песня, 7-128 kbps, словно майская роза, VBR
    Код:

    1. Все это как снег на голову, во все лопатки. General
    Complete name : НЛП Практик коммуникаций (Алексей Верютин)НЛП-практик. В воздухе пахло весной. 2 модуль. Cтроки эти как вершины поэзии. 3 занятие.mp4
    Format : MPEG-4
    Format profile : Base Media/Version 2
    Codec ID : mp42
    File size : 1.36 GiB
    Duration : 5h 5mn
    Overall bit rate mode : Variable
    Overall bit rate : 640 Kbps
    Encoded date : UTC 2012-05-25 13:51:05
    Tagged date : UTC 2012-05-25 13:52:00
    Writing application : mp4creator 1.4.4
    Video
    ID : 1
    Format : AVC
    Format/Info : Advanced Video Codec
    Format profile :Baseline@L1.3
    Format settings, как на иголках, CABAC : No
    Format settings, как черноморская пена, ReFrames : 2 frames
    Codec ID : avc1
    Codec ID/Info : Advanced Video Coding
    Duration : 5h 5mn
    Bit rate mode : Variable
    Bit rate : 512 Kbps
    Width : 1 280 pixels
    Height : 720 pixels
    Display aspect ratio : 16:9
    Frame rate mode : Constant
    Frame rate : 25.000 fps
    Color space : YUV
    Chroma subsampling : 4:2:0
    Bit depth : 8 bits
    Scan type : Progressive
    Bits/(Pixel*Frame) : 0.022
    Stream size : 1.09 GiB (80%)
    Language : English
    Encoded date : UTC 2012-05-25 13:51:05
    Tagged date : UTC 2012-05-25 13:51:42
    Audio
    ID : 2
    Format : AAC
    Format/Info : Advanced Audio Codec
    Format profile : LC
    Codec ID : 40
    Duration : 5h 5mn
    Source duration : 5h 5mn
    Bit rate mode : Variable
    Bit rate : 126 Kbps
    Maximum bit rate : 161 Kbps
    Channel count : 2 channels
    Channel positions : Front: L R
    Sampling rate : 44.1 KHz
    Compression mode : Lossy
    Stream size : 274 MiB (20%)
    Source stream size : 274 MiB (20%)
    Language : English
    Encoded date : UTC 2012-05-25 13:51:47
    Tagged date : UTC 2012-05-25 13:52:00
    2. Да м, ангельское терпение. General
    Complete name : Алексей Верютин - Создание стартапа с полной окупаемостью в первый месяц (2011)Startup2.0_video_part_01.mp4
    Format : MPEG-4
    Format profile : Base Media
    Codec ID : isom
    File size : 159 MiB
    Duration : 30mn 40s
    Overall bit rate mode : Variable
    Overall bit rate : 723 Kbps
    Writing application : Lavf52.84.0
    Video
    ID : 1
    Format : MPEG-4 Visual
    Format profile : Simple@L1
    Format settings, как принято, BVOP : No
    Format settings, едва заметно, QPel : No
    Format settings, словно майская роза, GMC : No warppoints
    Format settings, словно река, Matrix : Default (H.263)
    Codec ID : 20
    Duration : 30mn 40s
    Bit rate : 634 Kbps
    Width : 658 pixels
    Height : 490 pixels
    Display aspect ratio : 4:3
    Frame rate : 14.001 fps
    Color space : YUV
    Chroma subsampling : 4:2:0
    Bit depth : 8 bits
    Scan type : Progressive
    Compression mode : Lossy
    Bits/(Pixel*Frame) : 0.141
    Stream size : 139 MiB (88%)
    Writing library : Lavc52.94.4
    Audio
    ID : 2
    Format : AAC
    Format/Info : Advanced Audio Codec
    Format profile : LC
    Codec ID : 40
    Duration : 30mn 40s
    Bit rate mode : Variable
    Bit rate : 83.7 Kbps
    Channel count : 2 channels
    Channel positions : Front: L R
    Sampling rate : 44.1 KHz
    Compression mode : Lossy
    Stream size : 18.4 MiB (12%)
    3. Все ожидали другого развития, но получилось вот так. General
    Complete name : Верютин Алексей - Создание внеконкурентных бизнес-проектов (Мастер-класс) (2012)1 деньM2U00368.mp4
    Format : MPEG-4
    Format profile : Base Media/Version 2
    Codec ID : mp42
    File size : 1.02 GiB
    Duration : 50mn 36s
    Overall bit rate mode : Variable
    Overall bit rate : 2 888 Kbps
    Encoded date : UTC 2012-10-01 23:12:29
    Tagged date : UTC 2012-10-01 23:15:58
    Writing application : mp4creator 1.6.1d
    Video
    ID : 1
    Format : MPEG-4 Visual
    Format profile : Simple@L1
    Format settings, есть не что иное, BVOP : No
    Format settings, чаще всего, QPel : No
    Format settings, как обычно, GMC : No warppoints
    Format settings, как правило, Matrix : Default (H.263)
    Codec ID : 20
    Duration : 50mn 36s
    Bit rate mode : Variable
    Bit rate : 2 760 Kbps
    Maximum bit rate : 3 210 Kbps
    Width : 720 pixels
    Height : 576 pixels
    Display aspect ratio : 16:9
    Frame rate mode : Constant
    Frame rate : 25.000 fps
    Standard : PAL
    Color space : YUV
    Chroma subsampling : 4:2:0
    Bit depth : 8 bits
    Scan type : Progressive
    Compression mode : Lossy
    Bits/(Pixel*Frame) : 0.266
    Stream size : 999 MiB (96%)
    Language : English
    Encoded date : UTC 2012-10-01 23:12:29
    Tagged date : UTC 2012-10-01 23:15:56
    Audio
    ID : 2
    Format : AAC
    Format/Info : Advanced Audio Codec
    Format profile : LC
    Codec ID : 40
    Duration : 50mn 35s
    Source duration : 50mn 36s
    Bit rate mode : Variable
    Bit rate : 126 Kbps
    Maximum bit rate : 158 Kbps
    Channel count : 2 channels
    Channel positions : Front: L R
    Sampling rate : 44.1 KHz
    Compression mode : Lossy
    Stream size : 45.4 MiB (4%)
    Source stream size : 45.5 MiB (4%)
    Language : English
    Encoded date : UTC 2012-10-01 23:15:57
    Tagged date : UTC 2012-10-01 23:15:58
    4. Море глухо билось о берег. General
    Complete name : Управление Бессознательным Выбором Человека - Часть 2.m4v
    Format : MPEG-4
    Codec ID : M4V
    File size : 1.50 GiB
    Duration : 2h 11mn
    Overall bit rate mode : Variable
    Overall bit rate : 1 632 Kbps
    Encoded date : UTC 2012-04-14 23:50:26
    Tagged date : UTC 2012-04-14 23:50:57
    Video
    ID : 1
    Format : AVC
    Format/Info : Advanced Video Codec
    Format profile :Baseline@L3.0
    Format settings, как колыбельная песня, CABAC : No
    Format settings, темно как ночью, ReFrames : 1 frame
    Codec ID : avc1
    Codec ID/Info : Advanced Video Coding
    Duration : 2h 11mn
    Bit rate mode : Variable
    Bit rate : 1 503 Kbps
    Maximum bit rate : 4 006 Kbps
    Width : 640 pixels
    Height : 360 pixels
    Display aspect ratio : 16:9
    Frame rate mode : Constant
    Frame rate : 29.970 fps
    Color space : YUV
    Chroma subsampling : 4:2:0
    Bit depth : 8 bits
    Scan type : Progressive
    Bits/(Pixel*Frame) : 0.218
    Stream size : 1.38 GiB (92%)
    Title : Ћбработчик видео Apple
    Language : English
    Encoded date : UTC 2012-04-14 22:10:51
    Tagged date : UTC 2012-04-14 23:50:57
    Color primaries : BT.601 NTSC
    Transfer characteristics : BT.709
    Matrix coefficients : BT.601
    Audio
    ID : 2
    Format : AAC
    Format/Info : Advanced Audio Codec
    Format profile : LC
    Codec ID : 40
    Duration : 2h 11mn
    Source duration : 2h 11mn
    Bit rate mode : Constant
    Bit rate : 128 Kbps
    Channel count : 2 channels
    Channel positions : Front: L R
    Sampling rate : 44.1 KHz
    Compression mode : Lossy
    Stream size : 119 MiB (8%)
    Source stream size : 119 MiB (8%)
    Title : Ћбработчик звука Apple
    Language : English
    Encoded date : UTC 2012-04-14 22:10:52
    Tagged date : UTC 2012-04-14 23:50:57


    Скриншоты для ознакомления




    Алексей Верютин | Пакет тренингов по бизнесу (2011-2015) [CamRip, mp3, ppt, pptx, pdf, mhtml, html, doc] [H.264]
    загрузка...
    Рейтинг →
     (голосов: 1, оценка 3/5, голосовать можно 1 раз )

    Другие торренты по теме:

  • Диалоги. Александр Проханов – Алексей Венедиктов. Скрытая угроза России (2017) HDTVRip
  • Алексей Глушановский | Сердце вьюги (2017) [MP3]
  • Алексей Фомин | Доказательства существования ада. Свидетельства переживших смерть (2009) [FB2] скачать через торрент бесплатно
  • [profileschool] Алексей Довгуля | Графический планшет для ретушера (2014) PCRec [H.264 / 1080-LQ] скачать через торрент бесплатно
  • Алексей Олейников | Серия: «Дженни Далфин и Скрытые Земли» [5 книг] (2012-2014) [FB2] скачать через торрент бесплатно
  • [profileschool] Алексей Довгуля | Студийная съемка (2014) PCRec скачать через торрент бесплатно
  • Алексей Брянцев - Спасибо, что ты есть (2014) [FLAC|Lossless]<Шансон>
  • Алексей Даниленков | Интернет-право (2014) [PDF] скачать через торрент бесплатно


    • Комментарии (0):

      Информация

      Информация

        Посетители, находящиеся в группе Гости, не могут оставлять комментарии в данной новости.

        ↓ Меню




        ↓ Опрос

        Вы добавили сайт в закладки?
        Да
        Нет


        Top 10 за месяц (Книги)