.
Авторизация | Регистрация

Торрент скачать бесплатно

» » Сергей Змеев | Пакет тренингов (2011-2013) DVDRip [H.264] скачать торрент бесплатно




    Сергей Змеев | Пакет тренингов (2011-2013) DVDRip [H.264] скачать торрент бесплатно

    Опубликовал: Админ | Дата: 26-03-2016, 04:00 | Просмотров: 92

    Автор (режиссер): Сергей Змеев
    Жанр: Практическая психология, словно птица, Личностный рост, как колыбельная песня, Бизнес

    Описание

    Пакет тренингов Сергея Змеева на темы лидерства, темно как ночью, бизнеса, словно сон, продаж, как обычно, финансов, как на иголках, постановки целей, хлещет как из ведра, личностного роста и как черноморская пена, саморазвития.
    Сергей Змеев - автор проекта Хозяин Судьбы, будто капли серебряной воды, эксперт психологии бизнеса, как обычно, предприниматель с 20-и летним стажем, в большинстве случаев, собственник нескольких успешных бизнесов, обычно, совладелец инвестиционного финансового агентства Капитал, в большинстве случаев, ректор Высшего Института Психологии Бизнеса, как колыбельная песня, президент делового клуба Ближний Круг, привычно, долларовый миллионер и как обычно инвестор.
    Продолжительность: 33: 34: 04
    Качество видео: DVDRip
    Видео: AVC/H.264, словно музыка, 640x352-1280x720, вертится как белка в колесе, ~599 Kbps
    Аудио: AAC, обычно, 2 ch, как обычно, 109 Kbps, как черноморская пена, VBR
    Код:

    General
    Complete name : С:TorrentsЗмеев Сергей - Пакет тренинговНейроРеБрендинг (2012).mp4
    Format : MPEG-4
    Format profile : Base Media
    Codec ID : isom
    File size : 363 MiB
    Duration : 1h 11mn
    Overall bit rate mode : Variable
    Overall bit rate : 713 Kbps
    Encoded date : UTC 2012-03-16 10:10:42
    Tagged date : UTC 2012-03-17 10:11:01
    Video
    ID : 1
    Format : AVC
    Format/Info : Advanced Video Codec
    Format profile :High@L3.1
    Format settings, как принято, CABAC : Yes
    Format settings, чаще всего, ReFrames : 4 frames
    Codec ID : avc1
    Codec ID/Info : Advanced Video Coding
    Duration : 1h 11mn
    Bit rate : 599 Kbps
    Maximum bit rate : 1 450 Kbps
    Width : 640 pixels
    Height : 352 pixels
    Display aspect ratio : 16:9
    Frame rate mode : Constant
    Frame rate : 25.000 fps
    Color space : YUV
    Chroma subsampling : 4:2:0
    Bit depth : 8 bits
    Scan type : Progressive
    Bits/(Pixel*Frame) : 0.106
    Stream size : 306 MiB (84%)
    Writing library : Vimeo Encoder
    Encoded date : UTC 2012-03-16 10:10:42
    Tagged date : UTC 2012-03-16 10:10:58
    Audio
    ID : 2
    Format : AAC
    Format/Info : Advanced Audio Codec
    Format profile : LC
    Codec ID : 40
    Duration : 1h 11mn
    Bit rate mode : Variable
    Bit rate : 109 Kbps
    Maximum bit rate : 235 Kbps
    Channel(s) : 2 channels
    Channel positions : Front: L R
    Sampling rate : 44.1 KHz
    Compression mode : Lossy
    Stream size : 55.8 MiB (15%)
    Encoded date : UTC 2012-03-16 10:10:49
    Tagged date : UTC 2012-03-16 10:10:58


    Скриншоты для ознакомления




    Сергей Змеев | Пакет тренингов (2011-2013) DVDRip [H.264]
    загрузка...
    Рейтинг →
     (голосов: 1, оценка 3/5, голосовать можно 1 раз )

    Другие торренты по теме:



      Комментарии (0):

      Информация

      Информация

        Посетители, находящиеся в группе Гости, не могут оставлять комментарии в данной новости.

        ↓ Меню




        ↓ Опрос

        Вы добавили сайт в закладки?
        Да
        Нет


        Top 10 за неделю (Книги)

        В.И. Ленин | Сочинения (Издание четвертое) [48 книг] (1941-1967) [PDF] скачать торрент бесплатно

        (просмотров: 241)
        М.С. Серов | Глобальное потепление (2010) [PDF] скачать торрент бесплатно

        (просмотров: 141)
        Дмитрий Федотов | Основы 3ds Max (2013) PCRec [H.264] скачать торрент бесплатно

        (просмотров: 71)
        Антон Горнаков | Интерактивная Анимация [Maya HumanIK + Unity Mecanim] (2014) PCRec скачать торрент бесплатно

        (просмотров: 61)
        Виктор Дыгало | История корабля (1991) [PDF, DJVU] скачать торрент бесплатно

        (просмотров: 21)
        Димка Ковпак | Бизнес с Китаем за 2 месяца коучинг 16.0 [Версия PLATINUM+VIP] (2016) PCRec скачать торрент бесплатно

        (просмотров: 11)
        Екатерина Васина | Танго на байке (2017) [FB2] скачать торрент бесплатно

        (просмотров: 11)
        Марина Ильинская | Без очков. Восстановление зрения без лекарств (2017) [FB2] скачать торрент бесплатно

        (просмотров: 11)
        Журнал | Профиль №6 (987) (февраль 2017) [PDF] скачать торрент бесплатно

        (просмотров: 11)
        Н.П. Кисленко | HTML. Самое необходимое (+CD) (2008) [PDF] скачать торрент бесплатно

        (просмотров: 11)