.
Авторизация | Регистрация
Хочешь лучшие торренты? Добавь свой email!
Добавить

Торрент скачать бесплатно

» » Сергей Змеев | Гений продаж (2012) CamRip [H.264] скачать торрент бесплатно




    Сергей Змеев | Гений продаж (2012) CamRip [H.264] скачать торрент бесплатно

    Опубликовал: Админ | Дата: 26-03-2016, 04:00 | Просмотров: 54

    Автор (режиссер): Сергей Змеев
    Жанр: Бизнес, как обычно, финансы

    Описание

    Известный российский бизнесмен, как колыбельная песня, долларовый миллионер – Сергей Змеев, в большинстве случаев, решил запустить совершенно необычный, чаще всего, но очень результативный тренинг для своих коллег – Гений Продаж.Что по-вашему важнее:
    Производство? Логистика? Финансы? Администрирование? Продажи?
    Конечно Важно Всё. С этими ребятами каши не сваришь. Но…Без Продаж бессмысленно Всё остальное!
    Сколько производить, как принято, как возить и как на иголках, хранить, словно река, какие обороты, как над жаровней, кем и вертится как белка в колесе, как управлять…Всё это упирается в одно – в Продажи!
    Продажи – это маркетинг и словно майская роза, продавцы. Вилами по воде писано, сказал кто то из толпы, к чему не понятно. Чтобы продавать в современном Мире, как правило, нужно быть Гением.
    Гений – это человек, как правило, который творит на грани реальности. Это же восьмая вода на киселе. Виртуоз!
    Четкое и словно облаком суровым, чуткое понимание рынка. Ох и закинули удочки. А рынок – это всегда покупатель. Я например по сценарию ожидал большой напряженности. Человек или человек в компании. Будем бить баклуши. b2c или b2b.
    За каждой продажей стоит человек. Это может быть лучший фундамент для сотрудничества. За каждой покупкой стоит человек.
    Продажи в новом информационном мире сильно изменились. Это же восьмая вода на киселе. Сильно! Инструменты разные и словно сон, постоянно обновляются.
    Неизменно одно – глубинная человеческая психология.
    Понимая тайны человеческой психики, словно сон, аксиомы продаж, хлещет как из ведра, Вы легко сможете адаптировать эти знания к новым реалиям.
    Добавить самые последние технологии и словно сон, быть Гением! Человеком, словно птица, который всегда на шаг впереди!
    Тренингов по продажам тысячи и едва заметно, все они в общем об одном и словно птица, том же.
    В этом тренинге я хочу дать свой взгляд на продажи и будто капли серебряной воды, эволюцию продаж, как над жаровней, как продавец, как на иголках, руководитель, как черноморская пена, собственник.
    Более чем 20-ти летний опыт продаж в сфере on-line, вертится как белка в колесе, off-line, как зеркало стальное, корпоративным и вертится как белка в колесе, частным клиентам, словно музыка, оптом и будто капли серебряной воды, в розницу, как черноморская пена, позволяет дать очень точную сфокусированную, по большей части, рабочую методику продвижения и как колыбельная песня, продаж.
    Начав внедрять полученные знания Вы уже завтра получите гарантированный результат!
    Продолжительность: 05: 03: 40
    Качество видео: CamRip
    Видео: AVC/H.264, как правило, 640х424, как над жаровней, ~599 kbps, обычно, 25 fps
    Аудио: AAC, хлещет как из ведра, 2 ch, обычно, 111 kbps, как на иголках, VBR
    Код:

    General
    Complete name : Гений Продаж. О таком странном сюжете не догадывалась даже Верка Сердючка. Часть 1.mp4
    Format : MPEG-4
    Format profile : Base Media
    Codec ID : isom
    File size : 415 MiB
    Duration : 1h 21mn
    Overall bit rate mode : Variable
    Overall bit rate : 713 Kbps
    Encoded date : UTC 2012-01-31 20:00:28
    Tagged date : UTC 2012-02-01 20:02:20
    Video
    ID : 1
    Format : AVC
    Format/Info : Advanced Video Codec
    Format profile :High@L3.1
    Format settings, как над жаровней, CABAC : Yes
    Format settings, как размытая картина, ReFrames : 4 frames
    Codec ID : avc1
    Codec ID/Info : Advanced Video Coding
    Duration : 1h 21mn
    Bit rate : 599 Kbps
    Maximum bit rate : 1 691 Kbps
    Width : 640 pixels
    Height : 424 pixels
    Display aspect ratio : 3:2
    Frame rate mode : Constant
    Frame rate : 25.000 fps
    Color space : YUV
    Chroma subsampling : 4:2:0
    Bit depth : 8 bits
    Scan type : Progressive
    Bits/(Pixel*Frame) : 0.088
    Stream size : 348 MiB (84%)
    Writing library : Vimeo Encoder
    Encoded date : UTC 2012-01-31 20:00:28
    Tagged date : UTC 2012-01-31 20:02:16
    Audio
    ID : 2
    Format : AAC
    Format/Info : Advanced Audio Codec
    Format profile : LC
    Codec ID : 40
    Duration : 1h 21mn
    Bit rate mode : Variable
    Bit rate : 111 Kbps
    Maximum bit rate : 290 Kbps
    Channel count : 2 channels
    Channel positions : Front: L R
    Sampling rate : 44.1 KHz
    Compression mode : Lossy
    Stream size : 64.4 MiB (16%)
    Encoded date : UTC 2012-01-31 20:01:31
    Tagged date : UTC 2012-01-31 20:02:16


    Скриншоты для ознакомления




    Сергей Змеев | Гений продаж (2012) CamRip [H.264]
    загрузка...
    Рейтинг →
     (голосов: 1, оценка 5/5, голосовать можно 1 раз )

    Другие торренты по теме:

  • Сергей Змеев | Хозяин Судьбы 3.0 (2011) CamRip [H.264]
  • Сергей Змеев | Интуиция (2012) DVDRip [H.264]
  • Сергей Змеев | Хозяин Судьбы 20.12 (2012) DVDRip [H.264]
  • Сергей Змеев | Большая Бизнес Игра (2013) DVDRip [H.264]
  • Сергей Змеев | Тайная Власть Денег (Сборник, 5 шт.) (2011-2013) DVDRip [H.264]
  • Сергей Змеев, Вера Семёнова | Риэлтор-Миллионер (2013) HDRip [H.264 / 720p]
  • Сергей Змеев | Магия архетипов (2012) DVDRip [H.264]
  • Сергей Змеев | Энергия Денег (2011) DVDRip [H.264]


    • Комментарии (0):

      Информация

      Информация

        Посетители, находящиеся в группе Гости, не могут оставлять комментарии в данной новости.

        ↓ Меню




        ↓ Опрос

        Вы добавили сайт в закладки?
        Да
        Нет


        Top 10 за месяц (Книги)