.
Авторизация | Регистрация
Хочешь лучшие торренты? Добавь свой email!
Добавить

Торрент скачать бесплатно

» » Ричард Бэндлер | «Секреты успеха» от основателя НЛП Ричарда Бэндлера (2014) DVDRip [EN / RU Sub] торрент скачать бесплатно




    Ричард Бэндлер | «Секреты успеха» от основателя НЛП Ричарда Бэндлера (2014) DVDRip [EN / RU Sub] торрент скачать бесплатно

    Опубликовал: Админ | Дата: 26-03-2016, 04:00 | Просмотров: 83

    Автор (режиссер): Ричард Бэндлер
    Производство: NLP Life Training
    Жанр: Практическая психология, Личностный рост

    Описание

    В этом новом ограниченном издании на ДВД Секреты успеха, Ричард Бендлер моделирует четырех невероятно успешных людей, у которых вы научитесь, благодаря которым вдохновитесь, и чьи навыки сможете использовать в вашей собственной жизни.?
    Четыре звезды у которых он берет интервью:
    - Знаменитый шеф-повар и владелец сети ресторанов Альдо Зилли.
    - Золотой медалист олимпийских игр по бегу Иван Томас.
    - Бизнесмен - мультимиллионер Эндрю Моррис.
    - Известный британский актер Кристофер Эллисон.
    И, если вы когда-либо задавались вопросом, как Ричард пришел к тем мощным техникам НЛП, которым он учит на своих семинарах, в книгах и DVD-дисках, приготовьтесь – все секреты будут раскрыты!
    В Секретах успеха вы увидите, как Ричард моделирует каждого из этих потрясающе успешных людей, извлекая из них мощные фишки, которые вы найдете невероятно полезными в вашей жизни.
    Продолжительность: 02: 04: 44
    Качество видео: DVDRip
    Язык: Английский
    Субтитры: Русские (вшитые, не отключаемые)
    Видео: Xvid, 688x384, ~1 903 Kbps
    Аудио: MP3, 2 ch, 128 Kbps, CBR
    Код:

    General
    Complete name : C:TorrentsСекреты Успеха с Ричардом Бэндлером1. Альдо Зилли.avi
    Format : AVI
    Format/Info : Audio Video Interleave
    File size : 386 MiB
    Duration : 26mn 29s
    Overall bit rate : 2 040 Kbps
    Writing application : FairUse Wizard - http://fairusewizard.com
    Writing library : VirtualDub build 32706/release
    Video
    ID : 0
    Format : MPEG-4 Visual
    Format profile : Advanced Simple@L5
    Format settings, BVOP : 2
    Format settings, QPel : No
    Format settings, GMC : No warppoints
    Format settings, Matrix : Default (H.263)
    Muxing mode : Packed bitstream
    Codec ID : XVID
    Codec ID/Hint : XviD
    Duration : 26mn 29s
    Bit rate : 1 903 Kbps
    Width : 688 pixels
    Height : 384 pixels
    Display aspect ratio : 16:9
    Frame rate : 25.000 fps
    Color space : YUV
    Chroma subsampling : 4:2:0
    Bit depth : 8 bits
    Scan type : Progressive
    Compression mode : Lossy
    Bits/(Pixel*Frame) : 0.288
    Stream size : 360 MiB (93%)
    Writing library : XviD 73
    Audio
    ID : 1
    Format : MPEG Audio
    Format version : Version 1
    Format profile : Layer 3
    Mode : Joint stereo
    Mode extension : MS Stereo
    Codec ID : 55
    Codec ID/Hint : MP3
    Duration : 26mn 28s
    Bit rate mode : Constant
    Bit rate : 128 Kbps
    Channel(s) : 2 channels
    Sampling rate : 48.0 KHz
    Compression mode : Lossy
    Stream size : 24.2 MiB (6%)
    Alignment : Aligned on interleaves
    Interleave, duration : 40 ms (1.00 video frame)
    Interleave, preload duration : 504 ms
    Writing library : LAME3.97
    Encoding settings : -m j -V 4 -q 2 -lowpass 17 -b 128


    Скриншоты для ознакомления




    Ричард Бэндлер | «Секреты успеха» от основателя НЛП Ричарда Бэндлера (2014) DVDRip [EN/RU Sub]
    загрузка...
    Рейтинг →
     (голосов: 1, оценка 5/5, голосовать можно 1 раз )

    Другие торренты по теме:

  • Ричард Кайас | Теория цвета. Как работает цвет (2008) PCRec [H.264]
  • Камень и осколки / Я всё помню, Ричард! / Akmens un skembas (1966) DVDRip [H.264]
  • Камень и осколки / Я всё помню, Ричард! / Akmens un skembas (1966) DVDRip
  • Ричард Лаймон | Странствующий цирк вампиров (2014) [M4B|AAC]
  • Ричард Докинз | Бог как иллюзия. Лекция в Калифорнийском университете в Беркли / The God Delusion. UC Berkeley Event (2008) WEBRip [EN, RU] скачать через торрент бесплатно
  • Ричард Лаймон | Подвал (2015) [MP3] скачать через торрент бесплатно
  • Кори Тейлор, Ричард Кларк | Дом Злата и Костей / House of Gold & Bones [4 номера] (2013) [CBZ] [EN] скачать через торрент бесплатно
  • Ричард Касл | Цикл «Никки Хит» [4 книги] (2012-2014) [FB2, EPUB] скачать через торрент бесплатно


    • Комментарии (0):

      Информация

      Информация

        Посетители, находящиеся в группе Гости, не могут оставлять комментарии в данной новости.

        ↓ Меню




        ↓ Опрос

        Вы добавили сайт в закладки?
        Да
        Нет


        Top 10 за месяц (Книги)

        Джиллиан Майклз | Знаменитая программа Джиллиан Майклз: Стройное и здоровое тело за 30 дней (2016) [FB2]

        (скачиваний: 62)
        И.Б. Фефилова | Антивозрастная медицина. Современная энциклопедия (2015) [PDF, EPUB]

        (скачиваний: 31)
        Михаил Диденко | Русский стиль выживания. Как остаться в живых одному в лесу (2017) [PDF, FB2]

        (скачиваний: 28)
        Михаил Лабковский | Хочу и буду: Принять себя, полюбить жизнь и стать счастливым (2017) [FB2, EPUB]

        (скачиваний: 25)
        Евгений Старухин | Цикл «Лесовик» [4 книги. Обновляемая] (2015-2017) [FB2]

        (скачиваний: 23)
        Александр Клинге | Ленин. Самая правдивая биография Ильича (2017) [FB2, EPUB]

        (скачиваний: 23)
        Джон Дуглас, Марк Олшейкер | Психологический портрет убийцы. Методики ФБР (2016) [FB2, EPUB]

        (скачиваний: 22)
        Джек Дэниелс | От 800 метров до марафона (2014) [FB2]

        (скачиваний: 22)
        Давид Дубницкий | Жанровый НЮ-портрет (2016) PCRec

        (скачиваний: 21)
        Майкл Грегер | Не сдохни! Еда в борьбе за жизнь (2017) [PDF]

        (скачиваний: 20)