.
Авторизация | Регистрация
Хочешь лучшие торренты? Добавь свой email!
Добавить

Торрент скачать бесплатно

» » Алекс Мэй | Секреты Королевы (+Бонусы) (2015) CamRip [H.264] торрент скачать бесплатно




    Алекс Мэй | Секреты Королевы (+Бонусы) (2015) CamRip [H.264] торрент скачать бесплатно

    Опубликовал: Админ | Дата: 22-03-2016, 04:01 | Просмотров: 537

    Автор (режиссер): Алекс Мэй
    Жанр: Психология, сексология

    Описание

    Создать по-настоящему гармоничные, счастливые и надежные отношения, в которых Страсть, Нежность, Любовь и Влечение к тебе не заканчиваются даже после десятков лет совместной жизни.
    Ненавязчиво и незаметно для мужчины контролировать его уровень привязанности к тебе так, чтобы он выполнял любые твои просьбы, дарил подарки и оказывал столько внимания, сколько ты сама пожелаешь.
    Эта знания уже были неоднократно проверены тысячами самых разных женщин по всему миру и безотказно работают на мужчинах любого возраста, социального статуса, материального положения, внешних данных и характера.
    Продолжительность: 04: 40: 48
    Качество видео: CamRip
    Видео: AVC/H.264, 1920х1080, 1280х720, 640х360, 638х360, ~1207 kbps
    Аудио: AAC, 2 ch, 251 kbps, VBR
    Код:

    1) General
    Complete name : Мэй Алекс - Секреты Королевы (2015)10_mistakes_female.mp4
    Format : MPEG-4
    Format profile : Base Media/Version 2
    Codec ID : mp42
    File size : 207 MiB
    Duration : 19mn 46s
    Overall bit rate mode : Variable
    Overall bit rate : 1 462 Kbps
    Encoded date : UTC 2015-03-26 22:29:01
    Tagged date : UTC 2015-03-26 23:17:00
    Video
    ID : 1
    Format : AVC
    Format/Info : Advanced Video Codec
    Format profile :Main@L5.0
    Format settings, CABAC : Yes
    Format settings, ReFrames : 5 frames
    Codec ID : avc1
    Codec ID/Info : Advanced Video Coding
    Duration : 19mn 46s
    Bit rate mode : Variable
    Bit rate : 1 207 Kbps
    Width : 1 920 pixels
    Height : 1 080 pixels
    Display aspect ratio : 16:9
    Frame rate mode : Constant
    Frame rate : 30.000 fps
    Color space : YUV
    Chroma subsampling : 4:2:0
    Bit depth : 8 bits
    Scan type : Progressive
    Bits/(Pixel*Frame) : 0.019
    Stream size : 171 MiB (83%)
    Encoded date : UTC 2015-03-26 22:29:01
    Tagged date : UTC 2015-03-26 23:17:00
    Color primaries : BT.709
    Transfer characteristics : BT.709
    Matrix coefficients : BT.709
    Audio
    ID : 2
    Format : AAC
    Format/Info : Advanced Audio Codec
    Format profile : LC
    Codec ID : 40
    Duration : 19mn 46s
    Bit rate mode : Variable
    Bit rate : 251 Kbps
    Maximum bit rate : 415 Kbps
    Channel count : 2 channels
    Channel positions : Front: L R
    Sampling rate : 44.1 KHz
    Compression mode : Lossy
    Delay relative to video : 67ms
    Stream size : 35.5 MiB (17%)
    Encoded date : UTC 2015-03-26 22:29:01
    Tagged date : UTC 2015-03-26 22:30:43
    2)General
    Complete name : +БонусыМэй А. – Ошибки в сексе (подборка) (2011-2013)8 ошибок в сексе.mp4
    Format : MPEG-4
    Format profile : QuickTime
    Format settings : Compressed t_head
    Codec ID : qt
    File size : 66.9 MiB
    Duration : 17mn 29s
    Overall bit rate : 535 Kbps
    Encoded date : UTC 2012-07-05 05:36:59
    Tagged date : UTC 2012-07-05 05:37:06
    Writing library : Apple QuickTime
    com.apple.quicktime.software : ScreenFlow
    Video
    ID : 2
    Format : AVC
    Format/Info : Advanced Video Codec
    Format profile :Main@L2.2
    Format settings, CABAC : No
    Format settings, ReFrames : 2 frames
    Format settings, GOP : M=1, N=120
    Codec ID : avc1
    Codec ID/Info : Advanced Video Coding
    Duration : 17mn 29s
    Bit rate : 471 Kbps
    Width : 640 pixels
    Height : 360 pixels
    Display aspect ratio : 16:9
    Frame rate mode : Constant
    Frame rate : 15.000 fps
    Color space : YUV
    Chroma subsampling : 4:2:0
    Bit depth : 8 bits
    Scan type : Progressive
    Bits/(Pixel*Frame) : 0.136
    Stream size : 58.9 MiB (88%)
    Language : English
    Encoded date : UTC 2012-07-05 05:27:26
    Tagged date : UTC 2012-07-05 05:37:06
    Color primaries : BT.601 NTSC
    Transfer characteristics : BT.709
    Matrix coefficients : BT.601
    Audio
    ID : 1
    Format : AAC
    Format/Info : Advanced Audio Codec
    Format profile : LC
    Codec ID : 40
    Duration : 17mn 29s
    Source duration : 17mn 29s
    Bit rate mode : Constant
    Bit rate : 64.0 Kbps
    Channel count : 1 channel
    Channel positions : Front: C
    Sampling rate : 44.1 KHz
    Compression mode : Lossy
    Stream size : 7.83 MiB (12%)
    Source stream size : 7.83 MiB (12%)
    Language : English
    Encoded date : UTC 2012-07-05 05:27:26
    Tagged date : UTC 2012-07-05 05:37:06
    3) General
    Complete name : +Бонусы3 урока_секс_МэйКак заниматься сексом с беременными женщинами.mp4
    Format : MPEG-4
    Format profile : Base Media/Version 2
    Codec ID : mp42
    File size : 21.4 MiB
    Duration : 8mn 18s
    Overall bit rate mode : Variable
    Overall bit rate : 361 Kbps
    Encoded date : UTC 2013-11-26 12:00:32
    Tagged date : UTC 2013-11-26 12:00:32
    gsst : 0
    gstd : 498230
    gssd : B4A7D6E42MH1387026107878810
    gshh : r2---sn-n8v7sn7e.googlevideo.com
    Video
    ID : 1
    Format : AVC
    Format/Info : Advanced Video Codec
    Format profile :Baseline@L3.0
    Format settings, CABAC : No
    Format settings, ReFrames : 1 frame
    Format settings, GOP : M=1, N=60
    Codec ID : avc1
    Codec ID/Info : Advanced Video Coding
    Duration : 8mn 18s
    Bit rate : 262 Kbps
    Maximum bit rate : 1 013 Kbps
    Width : 638 pixels
    Height : 360 pixels
    Display aspect ratio : 16:9
    Frame rate mode : Constant
    Frame rate : 30.000 fps
    Color space : YUV
    Chroma subsampling : 4:2:0
    Bit depth : 8 bits
    Scan type : Progressive
    Bits/(Pixel*Frame) : 0.038
    Stream size : 15.6 MiB (73%)
    Tagged date : UTC 2013-11-26 12:00:33
    Audio
    ID : 2
    Format : AAC
    Format/Info : Advanced Audio Codec
    Format profile : LC
    Codec ID : 40
    Duration : 8mn 18s
    Bit rate mode : Variable
    Bit rate : 96.0 Kbps
    Maximum bit rate : 103 Kbps
    Channel count : 2 channels
    Channel positions : Front: L R
    Sampling rate : 44.1 KHz
    Compression mode : Lossy
    Stream size : 5.70 MiB (27%)
    Title : IsoMedia File Produced by Google, 5-11-2011
    Encoded date : UTC 2013-11-26 12:00:33
    Tagged date : UTC 2013-11-26 12:00:33
    4) General
    Complete name : Презентация курса \'СЕКРЕТЫ КОРОЛЕВЫ\'.mp4
    Format : MPEG-4
    Format profile : Base Media/Version 2
    Codec ID : mp42
    File size : 256 MiB
    Duration : 1h 0mn
    Overall bit rate mode : Variable
    Overall bit rate : 587 Kbps
    Encoded date : UTC 2015-11-12 10:52:50
    Tagged date : UTC 2015-11-12 10:52:50
    gsst : 0
    gstd : 3653751
    Video
    ID : 1
    Format : AVC
    Format/Info : Advanced Video Codec
    Format profile :High@L3.1
    Format settings, CABAC : Yes
    Format settings, ReFrames : 1 frame
    Format settings, GOP : M=1, N=60
    Codec ID : avc1
    Codec ID/Info : Advanced Video Coding
    Duration : 1h 0mn
    Bit rate : 392 Kbps
    Maximum bit rate : 9 851 Kbps
    Width : 1 280 pixels
    Height : 720 pixels
    Display aspect ratio : 16:9
    Frame rate mode : Constant
    Frame rate : 30.000 fps
    Color space : YUV
    Chroma subsampling : 4:2:0
    Bit depth : 8 bits
    Scan type : Progressive
    Bits/(Pixel*Frame) : 0.014
    Stream size : 171 MiB (67%)
    Tagged date : UTC 2015-11-12 10:53:09
    Audio
    ID : 2
    Format : AAC
    Format/Info : Advanced Audio Codec
    Format profile : LC
    Codec ID : 40
    Duration : 1h 0mn
    Bit rate mode : Variable
    Bit rate : 192 Kbps
    Maximum bit rate : 201 Kbps
    Channel count : 2 channels
    Channel positions : Front: L R
    Sampling rate : 44.1 KHz
    Compression mode : Lossy
    Stream size : 83.6 MiB (33%)
    Title : IsoMedia File Produced by Google, 5-11-2011
    Encoded date : UTC 2015-11-12 10:52:59
    Tagged date : UTC 2015-11-12 10:53:09


    Скриншоты для ознакомления




    Алекс Мэй | Секреты Королевы (+Бонусы) (2015) CamRip [H.264]
    загрузка...
    Рейтинг →
     (голосов: 1, оценка 3/5, голосовать можно 1 раз )

    Другие торренты по теме:

  • Алекс Мэй | Секреты удовлетворения женщин (2011) [MP3, JPG]
  • Алекс Мэй | Секреты Королевы. Настольная книга искусной любовницы (2016) [FB2]


    • Комментарии (0):

      Информация

      Информация

        Посетители, находящиеся в группе Гости, не могут оставлять комментарии в данной новости.

        ↓ Меню




        ↓ Опрос

        Вы добавили сайт в закладки?
        Да
        Нет


        Top 10 за месяц (Книги)

        Андрей Сазонов | Мифы о нашем теле. Научный подход к примитивным вопросам (2017) [FB2]

        (скачиваний: 30)
        Элла Берту, Сьюзен Элдеркин | Книга как лекарство. Скорая литературная помощь от А до Я (2016) [FB2, EPUB]

        (скачиваний: 27)
        Оуэйн Сервис, Рори Галлахер | Начинай с малого. Научно доказанная система достижения больших целей (2018) [PDF, FB2, EPUB]

        (скачиваний: 24)
        Григорий-Азиз | Фишки Ворда и Экселя [Word and Excel] (2017) PCRec [H.264]

        (скачиваний: 23)
        Юрий Подольский | Делаем сами коптильни, грили, мангалы, уличные печи (2017) [PDF, FB2, EPUB]

        (скачиваний: 22)
        Дмитрий Петров, Алексей Кржижевский | Серия: Полиглот. Выучим иностранный язык за 16 часов [5 книг] (2014-2015) [PDF, DJVU]

        (скачиваний: 21)
        Кевин Келли | Неизбежно. 12 технологических трендов, которые определяют наше будущее (2017) [PDF, EPUB, MOBI]

        (скачиваний: 21)
        Юрий Морозов | Ремонт дачного дома своими руками. Полное руководство (2017) [PDF]

        (скачиваний: 21)
        Наталья Корикова | Полезные и вкусные бутерброды. Алгоритм приготовления и рецепты (2017) [PDF]

        (скачиваний: 20)
        Екатерина Юша | Графоман или писатель Пишем свою первую книгу (2017) [FB2, EPUB]

        (скачиваний: 20)