.
Авторизация | Регистрация
Хочешь лучшие торренты? Добавь свой email!
Добавить

Торрент скачать бесплатно

» » Сергей Змеев | Онлайн-конференция - 3D: Деньги в Бизнесе! Деньги в Инфобизнесе! Деньги в Инвестициях! (2012) DVDRip [H.264] скачать торрент бесплатно




    Сергей Змеев | Онлайн-конференция - 3D: Деньги в Бизнесе! Деньги в Инфобизнесе! Деньги в Инвестициях! (2012) DVDRip [H.264] скачать торрент бесплатно

    Опубликовал: Админ | Дата: 20-03-2016, 04:06 | Просмотров: 140

    Автор (режиссер): Сергей Змеев
    Жанр: Деньги, словно облаком суровым, Бизнес, будто капли серебряной воды, Инфобизнес, словно птица, Инвестиции, словно музыка, Недвижимость

    Описание

    Всё, словно майская роза, что Вы хотели узнать, большей частью, но боялись спросить о Деньгах, обычно, Вы узнаете в этой видеозаписи конференции:
    3D: Dеньги в Бизнесе! Dеньги в Инвестициях! Dеньги в Инфобизнесе!
    7 дней… 7 экспертов… 7 заданий…
    Более 10 часов ценной информации о Деньгах…
    Внимание! Много новых навыков для немедленного внедрения.
    Продолжительность: 11: 55: 30
    Качество видео: DVDRip
    Видео: AVC/H.264, как правило, 640x352-640x480, как на иголках, ~599 Kbps
    Аудио: AAC, привычно, 2 ch, будто капли серебряной воды, 110 Kbps, словно сон, VBR
    Код:

    General
    Complete name : C:TorrentsЗмеев Сергей - Онлайн-конференция 3D - Деньги в Бизнесе! Деньги в Инфобизнесе! Деньги в Инвестициях! (2012)День 7 - Сергей Змеев - Часть 1.mp4
    Format : MPEG-4
    Format profile : Base Media
    Codec ID : isom
    File size : 290 MiB
    Duration : 56mn 53s
    Overall bit rate mode : Variable
    Overall bit rate : 712 Kbps
    Encoded date : UTC 2012-03-26 20:39:30
    Tagged date : UTC 2012-03-27 20:39:38
    Video
    ID : 1
    Format : AVC
    Format/Info : Advanced Video Codec
    Format profile :High@L3.1
    Format settings, как правило, CABAC : Yes
    Format settings, как принято, ReFrames : 4 frames
    Codec ID : avc1
    Codec ID/Info : Advanced Video Coding
    Duration : 56mn 53s
    Bit rate : 599 Kbps
    Maximum bit rate : 1 647 Kbps
    Width : 640 pixels
    Height : 480 pixels
    Display aspect ratio : 4:3
    Frame rate mode : Constant
    Frame rate : 25.000 fps
    Color space : YUV
    Chroma subsampling : 4:2:0
    Bit depth : 8 bits
    Scan type : Progressive
    Bits/(Pixel*Frame) : 0.078
    Stream size : 244 MiB (84%)
    Writing library : Vimeo Encoder
    Encoded date : UTC 2012-03-26 20:39:30
    Tagged date : UTC 2012-03-26 20:39:36
    Audio
    ID : 2
    Format : AAC
    Format/Info : Advanced Audio Codec
    Format profile : LC
    Codec ID : 40
    Duration : 56mn 53s
    Bit rate mode : Variable
    Bit rate : 110 Kbps
    Maximum bit rate : 240 Kbps
    Channel(s) : 2 channels
    Channel positions : Front: L R
    Sampling rate : 44.1 KHz
    Compression mode : Lossy
    Stream size : 44.6 MiB (15%)
    Encoded date : UTC 2012-03-26 20:39:34
    Tagged date : UTC 2012-03-26 20:39:36


    Скриншоты для ознакомления




    Сергей Змеев | Онлайн-конференция - 3D: Деньги в Бизнесе! Деньги в Инфобизнесе! Деньги в Инвестициях! (2012) DVDRip [H.264]
    загрузка...
    Рейтинг →
     (голосов: 1, оценка 4/5, голосовать можно 1 раз )

    Другие торренты по теме:



      Комментарии (0):

      Информация

      Информация

        Посетители, находящиеся в группе Гости, не могут оставлять комментарии в данной новости.

        ↓ Меню




        ↓ Опрос

        Вы добавили сайт в закладки?
        Да
        Нет


        Top 10 за месяц (Книги)

        Дипак Чопра, Рудольф Танзи | Супергены. На что способна твоя ДНК (2017) [FB2]

        (скачиваний: 23)
        Хезер Уиллемс, Нора Хертинг | Доведи идею до ума. 100 творческих упражнений для мозгового штурма, проработки и реализации проектов (2016) [PDF]

        (скачиваний: 13)
        Элиэзер Штернберг | Нейрологика. Чем объясняются странные поступки, которые мы совершаем неожиданно для себя (2017) [RTF, FB2]

        (скачиваний: 13)
        Ханне Брурсон | Мыслевирусы. Как не отравлять себе жизнь вредоносными мыслями (2015) [FB2]

        (скачиваний: 12)
        Ю.Н. Кондратьев и др. | Конструирование легких деревянных строений [части 1, 2] (2016) [PDF]

        (скачиваний: 10)
        Дмитрий Брикман | Фотография: увидеть увиденное (2015) [PDF]

        (скачиваний: 10)
        Т. Барышникова (авт.-сост.) | Школа ремонта. Опыт лучших профессионалов для домашнего мастера (2015) [PDF]

        (скачиваний: 10)
        Эндрю Стеллман, Дженнифер Грин | Постигая Agile (2017) [FB2]

        (скачиваний: 8)
        Алексей Серов | Мир, в который я смотрю. Практики обретения силы и путь осознания себя (2017) [FB2]

        (скачиваний: 8)
        Д. Елисеев | Рассказы о математике с примерами на языках Python и C (2017) [PDF]

        (скачиваний: 8)