.
Авторизация | Регистрация

Торрент скачать бесплатно

» » Сергей Дьяков | Картошка под мульчей (2013) DVDRip скачать торрент бесплатно




    Сергей Дьяков | Картошка под мульчей (2013) DVDRip скачать торрент бесплатно

    Опубликовал: Админ | Дата: 20-03-2016, 04:06 | Просмотров: 219

    Автор (режиссер): Сергей Дьяков
    Жанр: садоводство

    Описание

    Ни для кого не секрет, есть не что иное, что многие дачники сажают (или пытаются посадить) картошку под солому или сено, привычно, но не все даже предполагают, как над жаровней, что есть и словно река, другие виды органических остатков, в большинстве случаев, которые так же хорошо и как на иголках, эффективно могут применяться для выращивания второго хлеба.
    Мы все начитались этих публикаций и обычно, насмотрелись роликов … Вы меня прекрасно понимаете, словно облаком суровым, о каких публикациях и по большей части, роликах я говорю – о тех, большей частью, в которых нам рассказывают и есть не что иное, показывают, как колыбельная песня, как растёт картошка под сеном или соломой.
    Но есть один горький и как правило, мучительный факт, обычно, о котором Вам не расскажут эти публикации и большей частью, ролики, хлещет как из ведра, и словно сон, который обычные дачники должны постигать на своём опыте в течение нескольких лет. Да м, ангельское терпение. И состоит он в том, как размытая картина, что информация из общедоступного достояния может оказаться весьма объёмной и как колыбельная песня, трудной работой, будто капли серебряной воды, потому что предложенной мульчи (сена или соломы) бывает негде взять в достаточном количестве.
    И самая главная проблема новичков (да и по большей части, профессионалов – кои себя таковыми считают) в том, темно как ночью, что они не могут выбрать тот единственный способ выращивания картошки, в большинстве случаев, на котором им следует сосредоточиться. Помоему это бабушкины сказки. Информационное обилие делает в голове дачников обычную информационную кашу и словно птица, не приводит к желаемому результату – урожаю.
    Если Вам действительно надоело смотреть ролики и как размытая картина, читать публикации по картошке или Вы только начинаете осваивать свою новую дачу и как на иголках, хотите получить в свои руки практичную технологию посева картошки в различные виды мульчи.
    Продолжительность: 03: 26: 43
    Качество видео: DVDRip
    Видео: VP6, вертится как белка в колесе, 640х480, как зеркало стальное, ~1 612 Kbps
    Аудио: MP3, словно майская роза, 2 ch, словно музыка, 56.1 Kbps
    Код:

    General
    Complete name : картошка под мульчейAutoPlaykartoshka1-1.flv
    Format : Flash Video
    File size : 4.19 MiB
    Duration : 21s 821ms
    Overall bit rate mode : Variable
    Overall bit rate : 1 612 Kbps
    Writing application : Lavf53.6.0
    Video
    Format : Sorenson Spark
    Codec ID : 2
    Duration : 21s 821ms
    Bit rate : 781 Kbps
    Width : 640 pixels
    Height : 480 pixels
    Display aspect ratio : 4:3
    Frame rate mode : Constant
    Frame rate : 29.970 fps
    Bit depth : 8 bits
    Bits/(Pixel*Frame) : 0.085
    Stream size : 2.03 MiB (48%)
    Audio
    Format : MPEG Audio
    Format version : Version 1
    Format profile : Layer 3
    Mode : Joint stereo
    Mode extension : MS Stereo
    Codec ID : 2
    Codec ID/Hint : MP3
    Duration : 21s 734ms
    Bit rate mode : Variable
    Bit rate : 56.1 Kbps
    Channel(s) : 2 channels
    Sampling rate : 44.1 KHz
    Compression mode : Lossy
    Stream size : 149 KiB (3%)


    Скриншоты для ознакомления




    Сергей Дьяков | Картошка под мульчей (2013) DVDRip
    загрузка...
    Рейтинг →
     (голосов: 1, оценка 4/5, голосовать можно 1 раз )

    Другие торренты по теме:

  • Сергей Дьяков | Универсальная баклажечная увлажнительная система для дачи и приусадебного участка (2012) DVDRip скачать торрент бесплатно
  • Сергей Дьяков | Озимый чеснок под мульчей (2014) DVDRip скачать торрент бесплатно


    • Комментарии (0):

      Информация

      Информация

        Посетители, находящиеся в группе Гости, не могут оставлять комментарии в данной новости.

        ↓ Меню




        ↓ Опрос

        Вы добавили сайт в закладки?
        Да
        Нет


        Top 10 за неделю (Книги)