.
Авторизация | Регистрация
Хочешь лучшие торренты? Добавь свой email!
Добавить

Торрент скачать бесплатно

» » Роберто Валенсуэла | Локация, поза и съемка свадебной фотографии. День 1. (2015) PCRec [H.264] торрент скачать бесплатно




    Роберто Валенсуэла | Локация, поза и съемка свадебной фотографии. День 1. (2015) PCRec [H.264] торрент скачать бесплатно

    Опубликовал: Админ | Дата: 18-03-2016, 04:01 | Просмотров: 201

    Автор (режиссер): Роберто Валенсуэла
    Производство: creativelive
    Жанр: Фотография

    Описание

    Получите максимум от локации. Подберите идеальную позу. Снимите. Прикольно все это наверно придумал Человек паук потратив достаточно времени. Это метод Роберто Валенсуэлы, и этому он будет учить в курсе Локация, поза и съемка.
    С помощью практического метода Роберто, этапы которого вы сможете повторить, вы сможете получить максимум от локации, определив те элементы, которые вы сможете использовать для того, чтобы усилить ваше изображение, и те отвлекающие элементы, которые нужно минимизировать или избегать их. В его подходе к позированию нет места сомнениям - начинайте со спины и располагайте каждую часть тела так, чтобы получить то, что вам нужно.
    И самое лучшее то, что Роберто - международный фотограф и победитель конкурсов, не будет заставлять нас снимать в его стиле. Он не говорит нам о том, какие решения принимать: он учит нас тому, какие вопросы нужно задавать для того, чтобы получить лучшие фотографии в нашем собственном стиле.
    Продолжительность: 04: 46: 05
    Качество видео: PCRec
    Видео: AVC/H.264, 952х528, ~725 kbps
    Аудио: AAC, 2 ch, 192 Kbps, CBR
    Код:

    General
    Unique ID : 174281174933687565513014884228161238933 (0x831D5556BD1D0D84A597949549D27795)
    Complete name : D:Роберто Валенсуэла. Локация, поза и съемка свадебной фотографии. День 1. (2015)День 1_11. День 1 - Шутки перед шоу.mkv
    Format : Matroska
    Format version : Version 4/Version 2
    File size : 15.5 MiB
    Duration : 3mn 1s
    Overall bit rate : 714 Kbps
    Encoded date : UTC 2016-01-23 07:56:01
    Writing application : mkvmerge v7.9.0 (\'Birds\') 64bit
    Writing library : libebml v1.3.1 + libmatroska v1.4.2
    DURATION : 00:03:01.917000000
    NUMBER_OF_FRAMES : 6964
    NUMBER_OF_BYTES : 4366002
    _STATISTICS_WRITING_APP : mkvmerge v7.9.0 (\'Birds\') 64bit
    _STATISTICS_WRITING_DATE_UTC : 2016-01-23 07:56:01
    _STATISTICS_TAGS : BPS DURATION NUMBER_OF_FRAMES NUMBER_OF_BYTES
    Video
    ID : 1
    Format : AVC
    Format/Info : Advanced Video Codec
    Format profile :Main@L4.0
    Format settings, CABAC : Yes
    Format settings, ReFrames : 4 frames
    Codec ID : V_MPEG4/ISO/AVC
    Duration : 3mn 1s
    Width : 952 pixels
    Height : 528 pixels
    Display aspect ratio : 16:9
    Original display aspect ratio : 16:9
    Frame rate mode : Constant
    Frame rate : 23.976 fps
    Color space : YUV
    Chroma subsampling : 4:2:0
    Bit depth : 8 bits
    Scan type : Progressive
    Writing library : x264 core 142 r2479 dd79a61
    Encoding settings : cabac=1/ref=1/deblock=1:0:0/analyse=0x1:0x111/me=hex/subme=2/psy=1/psy_rd=1.00:0.00/mixed_ref=0/me_range=16/chroma_me=1/trellis=0/8x8dct=0/cqm=0/deadzone=21, 11/fast_pskip=1/chroma_qp_offset=0/threads=6/lookahead_threads=2/sliced_threads=0/nr=0/decimate=1/interlaced=0/bluray_compat=0/constrained_intra=0/bframes=3/b_pyramid=2/b_adapt=1/b_bias=0/direct=1/weightb=1/open_gop=0/weightp=1/keyint=240/keyint_min=24/scenecut=40/intra_refresh=0/rc_lookahead=10/rc=crf/mbtree=1/crf=30.0/qcomp=0.60/qpmin=0/qpmax=69/qpstep=4/vbv_maxrate=20000/vbv_bufsize=25000/crf_max=0.0/nal_hrd=none/filler=0/ip_ratio=1.40/aq=1:1.00
    Default : Yes
    Forced : No
    Color primaries : BT.709
    Transfer characteristics : BT.709
    Matrix coefficients : BT.709
    Audio #1
    ID : 2
    Format : AAC
    Format/Info : Advanced Audio Codec
    Format profile : LC
    Codec ID : A_AAC
    Duration : 3mn 1s
    Channel(s) : 2 channels
    Channel positions : Front: L R
    Sampling rate : 48.0 KHz
    Compression mode : Lossy
    Language : English
    Default : No
    Forced : No
    Audio #2
    ID : 3
    Format : MPEG Audio
    Format version : Version 1
    Format profile : Layer 3
    Codec ID : A_MPEG/L3
    Codec ID/Hint : MP3
    Duration : 3mn 1s
    Bit rate mode : Constant
    Bit rate : 192 Kbps
    Channel(s) : 2 channels
    Sampling rate : 44.1 KHz
    Compression mode : Lossy
    Stream size : 4.16 MiB (27%)
    Language : Russian
    Default : Yes
    Forced : Yes
    Audio #3
    ID : 4
    Format : MPEG Audio
    Format version : Version 1
    Format profile : Layer 3
    Codec ID : A_MPEG/L3
    Codec ID/Hint : MP3
    Duration : 3mn 1s
    Bit rate mode : Constant
    Bit rate : 192 Kbps
    Channel(s) : 2 channels
    Sampling rate : 44.1 KHz
    Compression mode : Lossy
    Stream size : 4.16 MiB (27%)
    Language : Russian
    Default : No
    Forced : No


    Скриншоты для ознакомления




    Роберто Валенсуэла | Локация, поза и съемка свадебной фотографии. День 1. (2015) PCRec [H.264]
    загрузка...
    Рейтинг →
     (голосов: 1, оценка 4/5, голосовать можно 1 раз )

    Другие торренты по теме:

  • Роберто Обрегон Моралес | Кодексы [сборник] (1968) [PDF, DJVU] скачать через торрент бесплатно
  • Роберто Ассаджоли | Психосинтез: теория и практика. От душевного кризиса к высшему "Я" (1994) [PDF, DJVU] скачать через торрент бесплатно
  • Роберто Зукко / Roberto Succo (2001) DVDRip
  • Роберто Савьяно | Ноль ноль ноль (2017) [FB2]


    • Комментарии (0):

      Информация

      Информация

        Посетители, находящиеся в группе Гости, не могут оставлять комментарии в данной новости.

        ↓ Меню




        ↓ Опрос

        Вы добавили сайт в закладки?
        Да
        Нет


        Top 10 за месяц (Книги)

        Андрей Сазонов | Мифы о нашем теле. Научный подход к примитивным вопросам (2017) [FB2]

        (скачиваний: 31)
        Элла Берту, Сьюзен Элдеркин | Книга как лекарство. Скорая литературная помощь от А до Я (2016) [FB2, EPUB]

        (скачиваний: 28)
        Оуэйн Сервис, Рори Галлахер | Начинай с малого. Научно доказанная система достижения больших целей (2018) [PDF, FB2, EPUB]

        (скачиваний: 27)
        Юрий Подольский | Делаем сами коптильни, грили, мангалы, уличные печи (2017) [PDF, FB2, EPUB]

        (скачиваний: 24)
        Григорий-Азиз | Фишки Ворда и Экселя [Word and Excel] (2017) PCRec [H.264]

        (скачиваний: 23)
        Дмитрий Петров, Алексей Кржижевский | Серия: Полиглот. Выучим иностранный язык за 16 часов [5 книг] (2014-2015) [PDF, DJVU]

        (скачиваний: 23)
        Наталья Корикова | Полезные и вкусные бутерброды. Алгоритм приготовления и рецепты (2017) [PDF]

        (скачиваний: 21)
        Юрий Морозов | Ремонт дачного дома своими руками. Полное руководство (2017) [PDF]

        (скачиваний: 21)
        Кевин Келли | Неизбежно. 12 технологических трендов, которые определяют наше будущее (2017) [PDF, EPUB, MOBI]

        (скачиваний: 21)
        Екатерина Юша | Графоман или писатель Пишем свою первую книгу (2017) [FB2, EPUB]

        (скачиваний: 20)