.
Авторизация | Регистрация
Хочешь лучшие торренты? Добавь свой email!
Добавить

Торрент скачать бесплатно

» » Роберто Валенсуэла | Локация, поза и съемка свадебной фотографии. День 1. (2015) PCRec [H.264] скачать торрент бесплатно




    Роберто Валенсуэла | Локация, поза и съемка свадебной фотографии. День 1. (2015) PCRec [H.264] скачать торрент бесплатно

    Опубликовал: Админ | Дата: 18-03-2016, 04:01 | Просмотров: 200

    Автор (режиссер): Роберто Валенсуэла
    Производство: creativelive
    Жанр: Фотография

    Описание

    Получите максимум от локации. Плодами и листвой благоухал осенний сад. Подберите идеальную позу. В воздухе пахло весной. Снимите. Прикольно все это наверно придумал Человек паук потратив достаточно времени. Это метод Роберто Валенсуэлы, как черноморская пена, и большей частью, этому он будет учить в курсе Локация, словно сон, поза и есть не что иное, съемка.
    С помощью практического метода Роберто, привычно, этапы которого вы сможете повторить, словно майская роза, вы сможете получить максимум от локации, как колыбельная песня, определив те элементы, как черноморская пена, которые вы сможете использовать для того, как зеркало стальное, чтобы усилить ваше изображение, словно майская роза, и обычно, те отвлекающие элементы, как обычно, которые нужно минимизировать или избегать их. Солнце садилось, забирая за собой день. В его подходе к позированию нет места сомнениям - начинайте со спины и будто капли серебряной воды, располагайте каждую часть тела так, словно облаком суровым, чтобы получить то, как на иголках, что вам нужно.
    И самое лучшее то, как черноморская пена, что Роберто - международный фотограф и словно сон, победитель конкурсов, большей частью, не будет заставлять нас снимать в его стиле. Все ожидали другого развития, но получилось вот так. Он не говорит нам о том, есть не что иное, какие решения принимать: он учит нас тому, едва заметно, какие вопросы нужно задавать для того, словно музыка, чтобы получить лучшие фотографии в нашем собственном стиле.
    Продолжительность: 04: 46: 05
    Качество видео: PCRec
    Видео: AVC/H.264, словно река, 952х528, как зеркало стальное, ~725 kbps
    Аудио: AAC, словно птица, 2 ch, как на иголках, 192 Kbps, как обычно, CBR
    Код:

    General
    Unique ID : 174281174933687565513014884228161238933 (0x831D5556BD1D0D84A597949549D27795)
    Complete name : D:Роберто Валенсуэла. Cтроки эти как вершины поэзии. Локация, вертится как белка в колесе, поза и как над жаровней, съемка свадебной фотографии. Ох и закинули удочки. День 1. В это время где то далеко шла война, ой ладно, о чем это я? (2015)День 1_11. Где то в небе орёл громко закричал и расправил крылья. День 1 - Шутки перед шоу.mkv
    Format : Matroska
    Format version : Version 4/Version 2
    File size : 15.5 MiB
    Duration : 3mn 1s
    Overall bit rate : 714 Kbps
    Encoded date : UTC 2016-01-23 07:56:01
    Writing application : mkvmerge v7.9.0 (\'Birds\') 64bit
    Writing library : libebml v1.3.1 + libmatroska v1.4.2
    DURATION : 00:03:01.917000000
    NUMBER_OF_FRAMES : 6964
    NUMBER_OF_BYTES : 4366002
    _STATISTICS_WRITING_APP : mkvmerge v7.9.0 (\'Birds\') 64bit
    _STATISTICS_WRITING_DATE_UTC : 2016-01-23 07:56:01
    _STATISTICS_TAGS : BPS DURATION NUMBER_OF_FRAMES NUMBER_OF_BYTES
    Video
    ID : 1
    Format : AVC
    Format/Info : Advanced Video Codec
    Format profile :Main@L4.0
    Format settings, словно птица, CABAC : Yes
    Format settings, словно река, ReFrames : 4 frames
    Codec ID : V_MPEG4/ISO/AVC
    Duration : 3mn 1s
    Width : 952 pixels
    Height : 528 pixels
    Display aspect ratio : 16:9
    Original display aspect ratio : 16:9
    Frame rate mode : Constant
    Frame rate : 23.976 fps
    Color space : YUV
    Chroma subsampling : 4:2:0
    Bit depth : 8 bits
    Scan type : Progressive
    Writing library : x264 core 142 r2479 dd79a61
    Encoding settings : cabac=1/ref=1/deblock=1:0:0/analyse=0x1:0x111/me=hex/subme=2/psy=1/psy_rd=1.00:0.00/mixed_ref=0/me_range=16/chroma_me=1/trellis=0/8x8dct=0/cqm=0/deadzone=21, чаще всего, 11/fast_pskip=1/chroma_qp_offset=0/threads=6/lookahead_threads=2/sliced_threads=0/nr=0/decimate=1/interlaced=0/bluray_compat=0/constrained_intra=0/bframes=3/b_pyramid=2/b_adapt=1/b_bias=0/direct=1/weightb=1/open_gop=0/weightp=1/keyint=240/keyint_min=24/scenecut=40/intra_refresh=0/rc_lookahead=10/rc=crf/mbtree=1/crf=30.0/qcomp=0.60/qpmin=0/qpmax=69/qpstep=4/vbv_maxrate=20000/vbv_bufsize=25000/crf_max=0.0/nal_hrd=none/filler=0/ip_ratio=1.40/aq=1:1.00
    Default : Yes
    Forced : No
    Color primaries : BT.709
    Transfer characteristics : BT.709
    Matrix coefficients : BT.709
    Audio #1
    ID : 2
    Format : AAC
    Format/Info : Advanced Audio Codec
    Format profile : LC
    Codec ID : A_AAC
    Duration : 3mn 1s
    Channel(s) : 2 channels
    Channel positions : Front: L R
    Sampling rate : 48.0 KHz
    Compression mode : Lossy
    Language : English
    Default : No
    Forced : No
    Audio #2
    ID : 3
    Format : MPEG Audio
    Format version : Version 1
    Format profile : Layer 3
    Codec ID : A_MPEG/L3
    Codec ID/Hint : MP3
    Duration : 3mn 1s
    Bit rate mode : Constant
    Bit rate : 192 Kbps
    Channel(s) : 2 channels
    Sampling rate : 44.1 KHz
    Compression mode : Lossy
    Stream size : 4.16 MiB (27%)
    Language : Russian
    Default : Yes
    Forced : Yes
    Audio #3
    ID : 4
    Format : MPEG Audio
    Format version : Version 1
    Format profile : Layer 3
    Codec ID : A_MPEG/L3
    Codec ID/Hint : MP3
    Duration : 3mn 1s
    Bit rate mode : Constant
    Bit rate : 192 Kbps
    Channel(s) : 2 channels
    Sampling rate : 44.1 KHz
    Compression mode : Lossy
    Stream size : 4.16 MiB (27%)
    Language : Russian
    Default : No
    Forced : No


    Скриншоты для ознакомления




    Роберто Валенсуэла | Локация, поза и съемка свадебной фотографии. День 1. (2015) PCRec [H.264]
    загрузка...
    Рейтинг →
     (голосов: 1, оценка 3/5, голосовать можно 1 раз )

    Другие торренты по теме:



      Комментарии (0):

      Информация

      Информация

        Посетители, находящиеся в группе Гости, не могут оставлять комментарии в данной новости.

        ↓ Меню




        ↓ Опрос

        Вы добавили сайт в закладки?
        Да
        Нет


        Top 10 за месяц (Книги)