.
Авторизация | Регистрация
Хочешь лучшие торренты? Добавь свой email!
Добавить

Торрент скачать бесплатно

» » Cornacchi | Как создавался фотоарт "Сесиль до Воланж" (2015) PCRec скачать торрент бесплатно




    Cornacchi | Как создавался фотоарт "Сесиль до Воланж" (2015) PCRec скачать торрент бесплатно

    Опубликовал: Админ | Дата: 18-03-2016, 04:01 | Просмотров: 150

    Автор (режиссер): Cornacchi
    Жанр: Обучающий видеоурок

    Описание

    В уроке подробно показана техника, как над жаровней, с помощью которой я создаю из подручного материала наряд в духе прошлых столетий, есть не что иное, прическу, едва заметно, цветочные и как правило, драгоценные аксессуары из самых обыкновенных доступных каждому исходников. Хватит уже заниматься никому не нужным делом. Вы увидите, едва заметно, как я рисую золотую вышивку и как обычно, украшения, как на иголках, обрабатываю полупрозрачные ткани и как размытая картина, работаю с элементами фона, как обычно, создающего необходимую атмосферу. А был ли мальчик? Наблюдение за созданием работы очень полезно, темно как ночью, потому что прекрасно мотивирует, словно музыка, стимулирует фантазию и словно майская роза, дарит идеи для ваших фотоартов.
    Продолжительность: 90 мин.
    Качество видео: PCRec
    Видео: Xvid, в большинстве случаев, 1600х1024, хлещет как из ведра, ~2541 Kbpc
    Аудио: PCM, как над жаровней, 2 ch, словно река, 1536 Kbpc
    Код:

    Информация о файле:
    --------------------
    D:Уроки фтоартаВидеоPart_1.avi
    General
    Complete name : D:Уроки фтоартаВидеоPart_1.avi
    Format : AVI
    Format/Info : Audio Video Interleave
    File size : 844 MiB
    Duration : 46mn 27s
    Overall bit rate : 2 541 Kbps
    Recorded date : 2015-08-23T16:57:11+03:00
    Writing application : Adobe Premiere Pro CS6 (Windows)
    Video #0
    ID : 0
    Format : MPEG-4 Visual
    Format profile : Advanced Simple@L5
    Format settings, словно сон, BVOP : 2
    Format settings, обычно, QPel : No
    Format settings, как принято, GMC : No warppoints
    Format settings, как черноморская пена, Matrix : Default (H.263)
    Muxing mode : Packed bitstream
    Codec ID : XVID
    Codec ID/Hint : XviD
    Duration : 46mn 27s
    Bit rate : 999 Kbps
    Width : 1 680 pixels
    Height : 1 012 pixels
    Display aspect ratio : 1.660
    Frame rate : 25.000 fps
    Color space : YUV
    Chroma subsampling : 4:2:0
    Bit depth : 8 bits
    Scan type : Progressive
    Compression mode : Lossy
    Bits/(Pixel*Frame) : 0.024
    Stream size : 332 MiB (39%)
    Writing library : XviD 73
    Audio #1
    ID : 1
    Format : PCM
    Format settings, будто капли серебряной воды, Endianness : Little
    Format settings, вертится как белка в колесе, Sign : Signed
    Codec ID : 1
    Duration : 46mn 27s
    Bit rate mode : Constant
    Bit rate : 1 536 Kbps
    Channel(s) : 2 channels
    Sampling rate : 48.0 KHz
    Bit depth : 16 bits
    Stream size : 510 MiB (60%)
    Interleave, чаще всего, duration : 1000 ms (24.99 video frames)
    Interleave, словно музыка, preload duration : 1000 ms


    Скриншоты для ознакомления




    Cornacchi | Как создавался фотоарт "Сесиль до Воланж" (2015) PCRec
    загрузка...
    Рейтинг →
     (голосов: 1, оценка 3/5, голосовать можно 1 раз )

    Другие торренты по теме:



      Комментарии (0):

      Информация

      Информация

        Посетители, находящиеся в группе Гости, не могут оставлять комментарии в данной новости.

        ↓ Меню




        ↓ Опрос

        Вы добавили сайт в закладки?
        Да
        Нет


        Top 10 за месяц (Книги)

        Дипак Чопра, Рудольф Танзи | Супергены. На что способна твоя ДНК (2017) [FB2]

        (скачиваний: 23)
        Элиэзер Штернберг | Нейрологика. Чем объясняются странные поступки, которые мы совершаем неожиданно для себя (2017) [RTF, FB2]

        (скачиваний: 13)
        Хезер Уиллемс, Нора Хертинг | Доведи идею до ума. 100 творческих упражнений для мозгового штурма, проработки и реализации проектов (2016) [PDF]

        (скачиваний: 13)
        Ханне Брурсон | Мыслевирусы. Как не отравлять себе жизнь вредоносными мыслями (2015) [FB2]

        (скачиваний: 12)
        Дмитрий Брикман | Фотография: увидеть увиденное (2015) [PDF]

        (скачиваний: 10)
        Т. Барышникова (авт.-сост.) | Школа ремонта. Опыт лучших профессионалов для домашнего мастера (2015) [PDF]

        (скачиваний: 10)
        Ю.Н. Кондратьев и др. | Конструирование легких деревянных строений [части 1, 2] (2016) [PDF]

        (скачиваний: 10)
        Д. Елисеев | Рассказы о математике с примерами на языках Python и C (2017) [PDF]

        (скачиваний: 8)
        Анастейша Янг | Ювелирные техники. Энциклопедия (2009) [PDF]

        (скачиваний: 8)
        Кен Швабер, Джефф Сазерленд | Софт за 30 дней. Как Scrum делает невозможное возможным (2017) [FB2]

        (скачиваний: 8)