.
Авторизация | Регистрация
Хочешь лучшие торренты? Добавь свой email!
Добавить

Торрент скачать бесплатно

» » Cornacchi | Как создавался фотоарт "Сесиль до Воланж" (2015) PCRec торрент скачать бесплатно




    Cornacchi | Как создавался фотоарт "Сесиль до Воланж" (2015) PCRec торрент скачать бесплатно

    Опубликовал: Админ | Дата: 18-03-2016, 04:01 | Просмотров: 151

    Автор (режиссер): Cornacchi
    Жанр: Обучающий видеоурок

    Описание

    В уроке подробно показана техника, с помощью которой я создаю из подручного материала наряд в духе прошлых столетий, прическу, цветочные и драгоценные аксессуары из самых обыкновенных доступных каждому исходников. Вы увидите, как я рисую золотую вышивку и украшения, обрабатываю полупрозрачные ткани и работаю с элементами фона, создающего необходимую атмосферу. Наблюдение за созданием работы очень полезно, потому что прекрасно мотивирует, стимулирует фантазию и дарит идеи для ваших фотоартов.
    Продолжительность: 90 мин.
    Качество видео: PCRec
    Видео: Xvid, 1600х1024, ~2541 Kbpc
    Аудио: PCM, 2 ch, 1536 Kbpc
    Код:

    Информация о файле:
    --------------------
    D:Уроки фтоартаВидеоPart_1.avi
    General
    Complete name : D:Уроки фтоартаВидеоPart_1.avi
    Format : AVI
    Format/Info : Audio Video Interleave
    File size : 844 MiB
    Duration : 46mn 27s
    Overall bit rate : 2 541 Kbps
    Recorded date : 2015-08-23T16:57:11+03:00
    Writing application : Adobe Premiere Pro CS6 (Windows)
    Video #0
    ID : 0
    Format : MPEG-4 Visual
    Format profile : Advanced Simple@L5
    Format settings, BVOP : 2
    Format settings, QPel : No
    Format settings, GMC : No warppoints
    Format settings, Matrix : Default (H.263)
    Muxing mode : Packed bitstream
    Codec ID : XVID
    Codec ID/Hint : XviD
    Duration : 46mn 27s
    Bit rate : 999 Kbps
    Width : 1 680 pixels
    Height : 1 012 pixels
    Display aspect ratio : 1.660
    Frame rate : 25.000 fps
    Color space : YUV
    Chroma subsampling : 4:2:0
    Bit depth : 8 bits
    Scan type : Progressive
    Compression mode : Lossy
    Bits/(Pixel*Frame) : 0.024
    Stream size : 332 MiB (39%)
    Writing library : XviD 73
    Audio #1
    ID : 1
    Format : PCM
    Format settings, Endianness : Little
    Format settings, Sign : Signed
    Codec ID : 1
    Duration : 46mn 27s
    Bit rate mode : Constant
    Bit rate : 1 536 Kbps
    Channel(s) : 2 channels
    Sampling rate : 48.0 KHz
    Bit depth : 16 bits
    Stream size : 510 MiB (60%)
    Interleave, duration : 1000 ms (24.99 video frames)
    Interleave, preload duration : 1000 ms


    Скриншоты для ознакомления




    Cornacchi | Как создавался фотоарт "Сесиль до Воланж" (2015) PCRec
    загрузка...
    Рейтинг →
     (голосов: 1, оценка 5/5, голосовать можно 1 раз )

    Другие торренты по теме:



      Комментарии (0):

      Информация

      Информация

        Посетители, находящиеся в группе Гости, не могут оставлять комментарии в данной новости.

        ↓ Меню




        ↓ Опрос

        Вы добавили сайт в закладки?
        Да
        Нет


        Top 10 за месяц (Книги)

        Джиллиан Майклз | Знаменитая программа Джиллиан Майклз: Стройное и здоровое тело за 30 дней (2016) [FB2]

        (скачиваний: 54)
        И.Б. Фефилова | Антивозрастная медицина. Современная энциклопедия (2015) [PDF, EPUB]

        (скачиваний: 31)
        Михаил Диденко | Русский стиль выживания. Как остаться в живых одному в лесу (2017) [PDF, FB2]

        (скачиваний: 27)
        Михаил Лабковский | Хочу и буду: Принять себя, полюбить жизнь и стать счастливым (2017) [FB2, EPUB]

        (скачиваний: 24)
        Александр Клинге | Ленин. Самая правдивая биография Ильича (2017) [FB2, EPUB]

        (скачиваний: 23)
        Джек Дэниелс | От 800 метров до марафона (2014) [FB2]

        (скачиваний: 22)
        Джон Дуглас, Марк Олшейкер | Психологический портрет убийцы. Методики ФБР (2016) [FB2, EPUB]

        (скачиваний: 20)
        Евгений Старухин | Цикл «Лесовик» [4 книги. Обновляемая] (2015-2017) [FB2]

        (скачиваний: 20)
        Дэвид Агус | Завтра начинается сегодня. Как воспользоваться достижениями anti-age медицины (2017) [FB2, EPUB]

        (скачиваний: 20)
        Давид Дубницкий | Жанровый НЮ-портрет (2016) PCRec

        (скачиваний: 20)