.
Авторизация | Регистрация

Торрент скачать бесплатно

» » Cornacchi | Как создавался фотоарт "Сесиль до Воланж" (2015) PCRec скачать торрент бесплатно




    Cornacchi | Как создавался фотоарт "Сесиль до Воланж" (2015) PCRec скачать торрент бесплатно

    Опубликовал: Админ | Дата: 18-03-2016, 04:01 | Просмотров: 150

    Автор (режиссер): Cornacchi
    Жанр: Обучающий видеоурок

    Описание

    В уроке подробно показана техника, как над жаровней, с помощью которой я создаю из подручного материала наряд в духе прошлых столетий, есть не что иное, прическу, едва заметно, цветочные и как правило, драгоценные аксессуары из самых обыкновенных доступных каждому исходников. Хватит уже заниматься никому не нужным делом. Вы увидите, едва заметно, как я рисую золотую вышивку и как обычно, украшения, как на иголках, обрабатываю полупрозрачные ткани и как размытая картина, работаю с элементами фона, как обычно, создающего необходимую атмосферу. А был ли мальчик? Наблюдение за созданием работы очень полезно, темно как ночью, потому что прекрасно мотивирует, словно музыка, стимулирует фантазию и словно майская роза, дарит идеи для ваших фотоартов.
    Продолжительность: 90 мин.
    Качество видео: PCRec
    Видео: Xvid, в большинстве случаев, 1600х1024, хлещет как из ведра, ~2541 Kbpc
    Аудио: PCM, как над жаровней, 2 ch, словно река, 1536 Kbpc
    Код:

    Информация о файле:
    --------------------
    D:Уроки фтоартаВидеоPart_1.avi
    General
    Complete name : D:Уроки фтоартаВидеоPart_1.avi
    Format : AVI
    Format/Info : Audio Video Interleave
    File size : 844 MiB
    Duration : 46mn 27s
    Overall bit rate : 2 541 Kbps
    Recorded date : 2015-08-23T16:57:11+03:00
    Writing application : Adobe Premiere Pro CS6 (Windows)
    Video #0
    ID : 0
    Format : MPEG-4 Visual
    Format profile : Advanced Simple@L5
    Format settings, словно сон, BVOP : 2
    Format settings, обычно, QPel : No
    Format settings, как принято, GMC : No warppoints
    Format settings, как черноморская пена, Matrix : Default (H.263)
    Muxing mode : Packed bitstream
    Codec ID : XVID
    Codec ID/Hint : XviD
    Duration : 46mn 27s
    Bit rate : 999 Kbps
    Width : 1 680 pixels
    Height : 1 012 pixels
    Display aspect ratio : 1.660
    Frame rate : 25.000 fps
    Color space : YUV
    Chroma subsampling : 4:2:0
    Bit depth : 8 bits
    Scan type : Progressive
    Compression mode : Lossy
    Bits/(Pixel*Frame) : 0.024
    Stream size : 332 MiB (39%)
    Writing library : XviD 73
    Audio #1
    ID : 1
    Format : PCM
    Format settings, будто капли серебряной воды, Endianness : Little
    Format settings, вертится как белка в колесе, Sign : Signed
    Codec ID : 1
    Duration : 46mn 27s
    Bit rate mode : Constant
    Bit rate : 1 536 Kbps
    Channel(s) : 2 channels
    Sampling rate : 48.0 KHz
    Bit depth : 16 bits
    Stream size : 510 MiB (60%)
    Interleave, чаще всего, duration : 1000 ms (24.99 video frames)
    Interleave, словно музыка, preload duration : 1000 ms


    Скриншоты для ознакомления




    Cornacchi | Как создавался фотоарт "Сесиль до Воланж" (2015) PCRec
    загрузка...
    Рейтинг →
     (голосов: 1, оценка 4/5, голосовать можно 1 раз )

    Другие торренты по теме:

  • Paul Haslinger & VA - Адреналин / Crank (Original Score + Original Soundtrack) (2006) [MP3|320 кб / с]<Soundtrack> торрент скачать бесплатно
  • Silence of the Old Man - Carencia De Ausencia (2010) (EP) [MP3|320 кб / с]<Atmospheric Post Black Metal, Shoegaze> скачать через торрент бесплатно
  • Адреналин / Crank (2006) BDRip [H.264 / 720р-LQ] [Directors Cut] скачать через торрент бесплатно
  • Адреналин: Дилогия / Crank: Dilogy (2006, 2009) BDRip [H.264 / 720p] [hand made 60fps] скачать через торрент бесплатно
  • Arovane & Hior Chronik - In-Between (2015) [FLAC|Lossless|WEB-DL]<Ambient, Experimental, Drone> скачать через торрент бесплатно
  • Dr. Dre - The Chronic (1992) [FLAC|tracks + .cue] <Hip Hop, Gangsta> скачать через торрент бесплатно
  • OutKast - Stankonia (2000) [FLAC|tracks + .cue] <Hip Hop, Funk, Soul, Gangsta, Crunk, Conscious> скачать через торрент бесплатно
  • VA - The Ultimate Trance Collection Vol. 6 (Mixed By Joe Cormack) (2016) [MP3|320 кб / с] <Trance> скачать через торрент бесплатно


    • Комментарии (0):

      Информация

      Информация

        Посетители, находящиеся в группе Гости, не могут оставлять комментарии в данной новости.

        ↓ Меню




        ↓ Опрос

        Вы добавили сайт в закладки?
        Да
        Нет


        Top 10 за неделю (Книги)

        С.И. Брук, В.С. Апенченко (ред.) | Атлас народов мира (1964) DJVU] скачать торрент бесплатно

        (просмотров: 1)
        Наталия Попович | Лечение радикулита и ревматизма народными средствами (2016) [FB2] скачать торрент бесплатно

        (просмотров: 1)
        Джозефина Тэй | Шиллинг на свечи (2012) [MP3] скачать торрент бесплатно

        (просмотров: 1)
        Марк Сондерс | Бедствие (1992) [FB2] скачать торрент бесплатно

        (просмотров: 1)
        Сергей Извольский | Гвардеец Его величества (2017) [FB2] скачать торрент бесплатно

        (просмотров: 1)
        Сергей Зайцев | Паломничество к Врагу (2017) [MP3] скачать торрент бесплатно

        (просмотров: 1)
        Евгений Колесов | Китаец (2017) [FB2] скачать торрент бесплатно

        (просмотров: 1)
        Мария Колпакова | Капризный огурец. Как вырастить без ошибок 50 шагов к успеху (2017) [FB2] скачать торрент бесплатно

        (просмотров: 1)
        Леонид Волынский | Лицо времени: Книга о русских художниках (2017) [MP3] скачать торрент бесплатно

        (просмотров: 1)
        Мария Колпакова | Планировка сада и огорода. 50 разумных идей (2017) [FB2] скачать торрент бесплатно

        (просмотров: 1)