.
Авторизация | Регистрация

Торрент скачать бесплатно

» » Александр Герчик | Мифы и реальность в трейдинге! (2015) HDRip [H.264 / 720p] скачать торрент бесплатно




    Александр Герчик | Мифы и реальность в трейдинге! (2015) HDRip [H.264 / 720p] скачать торрент бесплатно

    Опубликовал: Админ | Дата: 18-03-2016, 04:01 | Просмотров: 98

    Автор (режиссер): Александр Герчик
    Жанр: Трейдинг

    Описание

    Вы открываете интернет и темно как ночью, там написано Стань миллионером за 3 дня, вертится как белка в колесе, Видишь этих красивых девушек, как зеркало стальное, они могут быть твоими, в большинстве случаев, Выиграй автомобиль, большей частью, Лучший частный инвестор.
    Я провожу это занятие, как принято, чтобы каждый из вас ушёл из этого иллюзорного мира. Происходило это без году неделя. Потому что когда люди приходят в трейдинг, хлещет как из ведра, они живут в мире иллюзий, как колыбельная песня, что можно прийти на бижу и как черноморская пена, быстро заработать кучу денег.
    Когда вы идете в трейдинг, как на иголках, вы должны понимать, как обычно, что трейдинг это точно такой же бизнес, как колыбельная песня, как и привычно, любой другой, как над жаровней, один в один, словно облаком суровым, только ещё хуже. Боже как давно это было. Здесь есть эмоциональный фактор, хлещет как из ведра, потому что когда вы начнете торговать, темно как ночью, у вас будет 250 проблем на день, обычно, и как колыбельная песня, вам придётся с этими проблемами жить.
    Продолжительность: 01: 19: 42
    Качество видео: HDRip
    Видео: AVC/H.264, как размытая картина, 1280х720, обычно, ~1045 Kbps
    Аудио: AAC, обычно, 2 ch, словно река, 192 Kbps, едва заметно, VBR
    Код:

    General
    Complete name : C:TorrentsГерчик Александр - Мифы и как размытая картина, реальность в трейдинге!.mp4
    Format : MPEG-4
    Format profile : Base Media/Version 2
    Codec ID : mp42
    File size : 707 MiB
    Duration : 1h 19mn
    Overall bit rate mode : Variable
    Overall bit rate : 1 239 Kbps
    Encoded date : UTC 2015-11-27 09:38:51
    Tagged date : UTC 2015-11-27 09:38:51
    gsst : 0
    gstd : 4782775
    Video
    ID : 1
    Format : AVC
    Format/Info : Advanced Video Codec
    Format profile :High@L3.1
    Format settings, чаще всего, CABAC : Yes
    Format settings, как на иголках, ReFrames : 1 frame
    Format settings, как обычно, GOP : M=1, большей частью, N=60
    Codec ID : avc1
    Codec ID/Info : Advanced Video Coding
    Duration : 1h 19mn
    Bit rate : 1 045 Kbps
    Maximum bit rate : 1 989 Kbps
    Width : 1 280 pixels
    Height : 720 pixels
    Display aspect ratio : 16:9
    Frame rate mode : Constant
    Frame rate : 25.000 fps
    Color space : YUV
    Chroma subsampling : 4:2:0
    Bit depth : 8 bits
    Scan type : Progressive
    Bits/(Pixel*Frame) : 0.045
    Stream size : 596 MiB (84%)
    Tagged date : UTC 2015-11-27 09:39:33
    Audio
    ID : 2
    Format : AAC
    Format/Info : Advanced Audio Codec
    Format profile : LC
    Codec ID : 40
    Duration : 1h 19mn
    Bit rate mode : Variable
    Bit rate : 192 Kbps
    Maximum bit rate : 202 Kbps
    Channel(s) : 2 channels
    Channel positions : Front: L R
    Sampling rate : 44.1 KHz
    Compression mode : Lossy
    Stream size : 109 MiB (15%)
    Title : IsoMedia File Produced by Google, словно майская роза, 5-11-2011
    Encoded date : UTC 2015-11-27 09:39:14
    Tagged date : UTC 2015-11-27 09:39:33


    Скриншоты для ознакомления




    Александр Герчик | Мифы и реальность в трейдинге! (2015) HDRip [H.264/720p]
    загрузка...
    Рейтинг →
     (голосов: 1, оценка 5/5, голосовать можно 1 раз )

    Другие торренты по теме:



      Комментарии (0):

      Информация

      Информация

        Посетители, находящиеся в группе Гости, не могут оставлять комментарии в данной новости.

        ↓ Меню




        ↓ Опрос

        Вы добавили сайт в закладки?
        Да
        Нет


        Top 10 за неделю (Книги)

        В.И. Ленин | Сочинения (Издание четвертое) [48 книг] (1941-1967) [PDF] скачать торрент бесплатно

        (просмотров: 241)
        М.С. Серов | Глобальное потепление (2010) [PDF] скачать торрент бесплатно

        (просмотров: 141)
        Дмитрий Федотов | Основы 3ds Max (2013) PCRec [H.264] скачать торрент бесплатно

        (просмотров: 71)
        Антон Горнаков | Интерактивная Анимация [Maya HumanIK + Unity Mecanim] (2014) PCRec скачать торрент бесплатно

        (просмотров: 61)
        Виктор Дыгало | История корабля (1991) [PDF, DJVU] скачать торрент бесплатно

        (просмотров: 21)
        П. Кабанов | Общественно-политические и исторические взгляды А. П. Щапова (1954) [DJVU] скачать торрент бесплатно

        (просмотров: 11)
        Томас Метцингер | Наука о мозге и миф о своем Я. Тоннель Эго (2017) [FB2] скачать торрент бесплатно

        (просмотров: 11)
        В. И. Гараджа и др. (ред.) | Аргументы [8 выпусков] (1980-1988) [DJVU, PDF] скачать торрент бесплатно

        (просмотров: 11)
        Е. С. Варичев | Православная церковь. История и социальная сущность (1982) [DJVU] скачать торрент бесплатно

        (просмотров: 11)
        Валентина Травинка | Рецепты бабушки Травинки (2011) [MP3] скачать торрент бесплатно

        (просмотров: 11)