.
Авторизация | Регистрация

Торрент скачать бесплатно

» » Мирзакарим Норбеков, Вадим Нажипов | Мастерская успеха - Новосибирск (2012) DVDRip [H.264] скачать торрент бесплатно




    Мирзакарим Норбеков, Вадим Нажипов | Мастерская успеха - Новосибирск (2012) DVDRip [H.264] скачать торрент бесплатно

    Опубликовал: Админ | Дата: 18-03-2016, 04:01 | Просмотров: 90

    Автор (режиссер): Мирзакарим Норбеков, вертится как белка в колесе, Вадим Нажипов
    Жанр: Саморазвитие, как колыбельная песня, Бизнес, как обычно, Интуиция

    Описание

    Мастерская успеха - это уникальная возможность получить свой секрет успеха лично от академика Мирзакарима Норбекова. О таком странном сюжете не догадывалась даже Бритни Спирс. Это шанс повернуть жизнь в том направлении, как принято, которое Вам нужно. Солнце садилось, забирая за собой день. Возможность реализовать свои скрытые таланты. А был ли мальчик? Заработать свой первый и как правило, последующие миллионы, словно река, стать участником Российского Клуба Миллионеров, большей частью, основателем которого является Норбеков.
    Продолжительность: 15: 59: 16
    Качество видео: DVDRip
    Видео: AVC, по большей части, 854x480, как размытая картина, ~417 Kbps
    Аудио: AAC, как на иголках, 2 ch, темно как ночью, 128 Kbps, хлещет как из ведра, VBR
    Код:

    General
    Complete name : C:TorrentsНорбеков М.С. А в берёзы в роще всеравно красивее. - Мастерская успеха - Новосибирск - Ноябрь 20122 - 00001.mp4
    Format : MPEG-4
    Format profile : Base Media
    Codec ID : isom
    File size : 211 MiB
    Duration : 53mn 24s
    Overall bit rate mode : Variable
    Overall bit rate : 552 Kbps
    Encoded date : UTC 2016-02-27 14:02:52
    Tagged date : UTC 2016-02-27 14:02:52
    Writing application : Lavf55.33.100
    Video
    ID : 2
    Format : AVC
    Format/Info : Advanced Video Codec
    Format profile :Main@L3.0
    Format settings, словно майская роза, CABAC : Yes
    Format settings, словно сон, ReFrames : 3 frames
    Format settings, хлещет как из ведра, GOP : M=1, в большинстве случаев, N=50
    Codec ID : avc1
    Codec ID/Info : Advanced Video Coding
    Duration : 53mn 24s
    Bit rate : 417 Kbps
    Width : 854 pixels
    Height : 480 pixels
    Display aspect ratio : 16:9
    Frame rate mode : Constant
    Frame rate : 25.000 fps
    Color space : YUV
    Chroma subsampling : 4:2:0
    Bit depth : 8 bits
    Scan type : Progressive
    Bits/(Pixel*Frame) : 0.041
    Stream size : 159 MiB (75%)
    Encoded date : UTC 2016-02-27 14:02:52
    Tagged date : UTC 2016-02-27 14:02:52
    Audio
    ID : 1
    Format : AAC
    Format/Info : Advanced Audio Codec
    Format profile : LC
    Codec ID : 40
    Duration : 53mn 24s
    Bit rate mode : Variable
    Bit rate : 128 Kbps
    Maximum bit rate : 132 Kbps
    Channel(s) : 2 channels
    Channel positions : Front: L R
    Sampling rate : 44.1 KHz
    Compression mode : Lossy
    Stream size : 48.9 MiB (23%)
    Encoded date : UTC 2016-02-27 14:02:52
    Tagged date : UTC 2016-02-27 14:02:52


    Скриншоты для ознакомления




    Мирзакарим Норбеков, Вадим Нажипов | Мастерская успеха - Новосибирск (2012) DVDRip [H.264]
    загрузка...
    Рейтинг →
     (голосов: 1, оценка 3/5, голосовать можно 1 раз )

    Другие торренты по теме:

  • Мирзакарим Норбеков | Опыт дурака 1-3 (2011-2015) [PDF] торрент скачать бесплатно
  • Мирзакарим Норбеков | Интуиция и денежный поток (2014) PCRec [H.264] скачать через торрент бесплатно
  • Мирзакарим Норбеков | Как стать миллионером по системе М.С. Норбекова (2014) HDRip [H.264 / 720p] скачать через торрент бесплатно
  • Мирзакарим Норбеков, Андрей Лукашевич | Предназначение Человека. Программа Максимум (VIP) Мастер-классы (2015) DVDRip [H.264] скачать через торрент бесплатно
  • Мирзакарим Норбеков | Путь к Себе. Начало (2015) HDRip [H.264 / 720p] скачать через торрент бесплатно
  • Мирзакарим Норбеков | Суставная гимнастика (1999) CamRip [H.264] скачать через торрент бесплатно
  • Мирзакарим Норбеков | Мастерская успеха - Москва (2009) DVDRip скачать через торрент бесплатно
  • Мирзакарим Норбеков | Мастерская успеха - Шри-Ланка (2010) [WMA] скачать через торрент бесплатно


    • Комментарии (0):

      Информация

      Информация

        Посетители, находящиеся в группе Гости, не могут оставлять комментарии в данной новости.

        ↓ Меню




        ↓ Опрос

        Вы добавили сайт в закладки?
        Да
        Нет


        Top 10 за неделю (Книги)