.
Авторизация | Регистрация
Хочешь лучшие торренты? Добавь свой email!
Добавить

Торрент скачать бесплатно

» » Chris Orwig | [Lynda.com]Photoshop Blend Modes for Photography [H.264 / 720p] [EN] (2015) PCRec торрент скачать бесплатно




    Chris Orwig | [Lynda.com]Photoshop Blend Modes for Photography [H.264 / 720p] [EN] (2015) PCRec торрент скачать бесплатно

    Опубликовал: Админ | Дата: 15-03-2016, 04:00 | Просмотров: 300

    Автор (режиссер): Chris Orwig
    Производство: Lynda.com
    Жанр: обучающее видео, Adobe Photoshop

    Описание

    Умение работать в Photoshop с режимами наложения может дать вам больше творческих возможностей, а также контроль над тональностью и текстурой.
    Фотограф и педагог Chris Orwig показывает, как составлять изображения вместе, создавать яркий цвет и реалистичную зернистость, решать передовые проекты, которые сочетают в себе режимы наложения с маскировкой, такие как создание изолированных областей текстур и замена неба на изображении. Прикольно все это наверно придумал Уил Смит потратив достаточно времени. Независимо от того, что вы снимаете, портреты или пейзажи, этот курс предоставит вам новые способы усиления драматизма и эффекта ваших фотографий с режимами наложения.
    Файлы упражнений прилагаются к курсу.
    Продолжительность: 01: 30: 02
    Качество видео: PCRec
    Язык: Английский
    Видео: AVC/H.264, 1280x800 (16: 10), ~62, 9 Kbps
    Аудио: AAC, 2 ch, 160 Kbps, CBR
    Код:

    Общее
    Полное имя : E:TUTTORIALSPHOTOSHOP[Lynda.com]Photoshop Blend Modes for Photography2. Blend Mode Essentials2_01-What are blend modes and how do they work.mp4
    Формат : MPEG-4
    Профиль формата : Base Media/Version 2
    Идентификатор кодека : mp42 (mp42/isom)
    Размер файла : 4, 25 Мбайт
    Продолжительность : 2 м. 35 с.
    Режим общего битрейта : Переменный
    Общий поток : 229 Кбит/сек
    Дата кодирования : UTC 2015-12-15 16:06:14
    Дата пометки : UTC 2015-12-15 16:06:14
    Видео
    Идентификатор : 1
    Формат : AVC
    Формат/Информация : Advanced Video Codec
    Профиль формата :Main@L3.2
    Параметр CABAC формата : Да
    Параметр ReFrames формата : 5 кадров
    Идентификатор кодека : avc1
    Идентификатор кодека/Информация : Advanced Video Coding
    Продолжительность : 2 м. Волк в овечьей шкуре, сказал кто то из толпы, к чему не понятно. 35 с.
    Вид битрейта : Переменный
    Битрейт : 62, 9 Кбит/сек
    Максимальный битрейт : 1000 Кбит/сек
    Ширина : 1280 пикселей
    Высота : 800 пикселей
    Соотношение сторон : 16:10
    Режим частоты кадров : Постоянный
    Частота кадров : 30, 000 кадров/сек
    Цветовое пространство : YUV
    Субдискретизация насыщенности : 4:2:0
    Битовая глубина : 8 бит
    Тип развёртки : Прогрессивная
    Бит/(Пиксели*Кадры) : 0.002
    Размер потока : 1, 16 Мбайт (27%)
    Заголовок : Telestream Inc. Dib Library - ReleaseVantage 2014.59.138974
    Библиотека кодирования : x264 core 129
    Настройки программы : cabac=1/ref=5/deblock=1:0:0/analyse=0x1:0x111/me=hex/subme=7/psy=1/psy_rd=1.00:0.00/mixed_ref=1/me_range=16/chroma_me=1/trellis=1/8x8dct=0/cqm=0/deadzone=21, 11/fast_pskip=1/chroma_qp_offset=-2/threads=14/lookahead_threads=2/sliced_threads=0/nr=0/decimate=1/interlaced=0/bluray_compat=0/constrained_intra=0/bframes=1/b_pyramid=0/b_adapt=1/b_bias=0/direct=1/weightb=1/open_gop=0/weightp=2/keyint=300/keyint_min=30/scenecut=40/intra_refresh=0/rc_lookahead=40/rc=crf/mbtree=1/crf=22.0/qcomp=0.60/qpmin=0/qpmax=69/qpstep=4/vbv_maxrate=1000/vbv_bufsize=6400/crf_max=0.0/nal_hrd=vbr/ip_ratio=3.00/aq=1:1.00
    Язык : English
    Дата кодирования : UTC 2015-12-15 16:06:14
    Дата пометки : UTC 2015-12-15 16:06:14
    Аудио
    Идентификатор : 2
    Формат : AAC
    Формат/Информация : Advanced Audio Codec
    Профиль формата : LC
    Идентификатор кодека : 40
    Продолжительность : 2 м. 35 с.
    Вид битрейта : Постоянный
    Битрейт : 160 Кбит/сек
    Номинальный битрейт : 128 Кбит/сек
    Каналы : 2 канала
    Расположение каналов : Front: L R
    Частота : 48, 0 КГц
    Частота кадров : 46, 875 кадров/сек (1024 spf)
    Метод сжатия : С потерями
    Размер потока : 2, 96 Мбайт (70%)
    Заголовок : Telestream Inc. Dib Library - ReleaseVantage 2014.59.138974
    Язык : English
    Дата кодирования : UTC 2015-12-15 16:06:14
    Дата пометки : UTC 2015-12-15 16:06:14


    Скриншоты для ознакомления




    Chris Orwig | [Lynda.com]Photoshop Blend Modes for Photography [H.264/720p] [EN] (2015) PCRec
    загрузка...
    Рейтинг →
     (голосов: 1, оценка 4/5, голосовать можно 1 раз )

    Другие торренты по теме:

  • Chris-PC RAM Booster 2.60 [Multi / Ru]
  • Chris-PC Game Booster 3.75 [Ru]
  • Chris Connor - A Jazz Date With Chris Connor & Chris Craft (1958) 1994, Rhino[FLAC|Lossless|tracks + .cue] <Vocal Jazz>
  • Chris Rea - 17 Great Blues & Ballads of Chris Rea (1998) [FLAC|Lossless]<Pop-Rock, Other Rock, Other Pop, Blues, Soft rock> скачать через торрент бесплатно
  • Chris Rea - The Best Of Chris Rea (1994) [FLAC|Lossless|tracks + .cue] <Soft Rock, Pop Rock> скачать через торрент бесплатно
  • Chris Connor - Chris (1957) 2000, Avenue Jazz[FLAC|Lossless|tracks + .cue] <Vocal Jazz>
  • Chris Flory, Scott Hamilton - Chris Flory Quintet featuring Scott Hamilton (2011) [FLAC|Lossless|tracks + .cue] <Mainstream Jazz>
  • Chris Isaak - Best of Chris Isaak (2006) DVDRip


    • Комментарии (0):

      Информация

      Информация

        Посетители, находящиеся в группе Гости, не могут оставлять комментарии в данной новости.

        ↓ Меню




        ↓ Опрос

        Вы добавили сайт в закладки?
        Да
        Нет


        Top 10 за месяц (Книги)

        Джиллиан Майклз | Знаменитая программа Джиллиан Майклз: Стройное и здоровое тело за 30 дней (2016) [FB2]

        (скачиваний: 54)
        И.Б. Фефилова | Антивозрастная медицина. Современная энциклопедия (2015) [PDF, EPUB]

        (скачиваний: 31)
        Михаил Диденко | Русский стиль выживания. Как остаться в живых одному в лесу (2017) [PDF, FB2]

        (скачиваний: 27)
        Михаил Лабковский | Хочу и буду: Принять себя, полюбить жизнь и стать счастливым (2017) [FB2, EPUB]

        (скачиваний: 24)
        Александр Клинге | Ленин. Самая правдивая биография Ильича (2017) [FB2, EPUB]

        (скачиваний: 23)
        Джек Дэниелс | От 800 метров до марафона (2014) [FB2]

        (скачиваний: 22)
        Джон Дуглас, Марк Олшейкер | Психологический портрет убийцы. Методики ФБР (2016) [FB2, EPUB]

        (скачиваний: 20)
        Дэвид Агус | Завтра начинается сегодня. Как воспользоваться достижениями anti-age медицины (2017) [FB2, EPUB]

        (скачиваний: 20)
        Евгений Старухин | Цикл «Лесовик» [4 книги. Обновляемая] (2015-2017) [FB2]

        (скачиваний: 20)
        Давид Дубницкий | Жанровый НЮ-портрет (2016) PCRec

        (скачиваний: 20)