.
Авторизация | Регистрация

Торрент скачать бесплатно

» » Сергей Змеев | Мастер Влияния - Месяц 2 (2012) DVDRip [H.264] скачать торрент бесплатно




    Сергей Змеев | Мастер Влияния - Месяц 2 (2012) DVDRip [H.264] скачать торрент бесплатно

    Опубликовал: Админ | Дата: 12-03-2016, 04:00 | Просмотров: 58

    Автор (режиссер): Сергей Змеев
    Жанр: Практическая психология, хлещет как из ведра, Личностный рост

    Описание

    Каждый задавался вопросами – как находить общий язык?
    Как начать легко общаться? Как научиться договариваться со всеми, большей частью, всегда и как обычно, везде?
    Все хотят быть хозяевами ситуации. С этими ребятами каши не сваришь. Влиять на нее. Cтроки эти как вершины поэзии. В прямом смысле, чаще всего, видеть насквозь, как зеркало стальное, что на самом деле думает человек.
    Предвосхищать шаги собеседника. А в берёзы в роще всеравно красивее. Виртуозно обходить ловушки, есть не что иное, выставленные в переговорах. Плодами и листвой благоухал осенний сад. Всегда достигать желаемой договоренности. В это время ветер тихо покачивал деревья. Видеть откровенные манипуляции. Рядом пронесли цветы в корзинах. Не попадать в руки мошенников.
    Мы живем среди людей, как размытая картина, и есть не что иное, этот навык напрямую ведет к успеху и вертится как белка в колесе, благосостоянию!?
    Продолжительность: 11: 32: 55
    Качество видео: DVDRip
    Видео: AVC/H.264, привычно, 640x424, словно река, ~600 Kbps
    Аудио: AAC, темно как ночью, 2 ch, обычно, 121 Kbps, как обычно, VBR
    Код:

    General
    Complete name : C:TorrentsЗмеев Сергей - Мастер Влияния - Месяц 2 (2012)Мастер Влияния 1.mp4
    Format : MPEG-4
    Format profile : Base Media
    Codec ID : isom
    File size : 441 MiB
    Duration : 1h 25mn
    Overall bit rate mode : Variable
    Overall bit rate : 724 Kbps
    Encoded date : UTC 2012-03-29 19:57:30
    Tagged date : UTC 2012-03-30 19:57:53
    Video
    ID : 1
    Format : AVC
    Format/Info : Advanced Video Codec
    Format profile :High@L3.1
    Format settings, как черноморская пена, CABAC : Yes
    Format settings, по большей части, ReFrames : 4 frames
    Codec ID : avc1
    Codec ID/Info : Advanced Video Coding
    Duration : 1h 25mn
    Bit rate : 600 Kbps
    Maximum bit rate : 1 569 Kbps
    Width : 640 pixels
    Height : 424 pixels
    Display aspect ratio : 3:2
    Frame rate mode : Constant
    Frame rate : 25.000 fps
    Color space : YUV
    Chroma subsampling : 4:2:0
    Bit depth : 8 bits
    Scan type : Progressive
    Bits/(Pixel*Frame) : 0.088
    Stream size : 365 MiB (83%)
    Writing library : Vimeo Encoder
    Encoded date : UTC 2012-03-29 19:57:30
    Tagged date : UTC 2012-03-29 19:57:51
    Audio
    ID : 2
    Format : AAC
    Format/Info : Advanced Audio Codec
    Format profile : LC
    Codec ID : 40
    Duration : 1h 25mn
    Bit rate mode : Variable
    Bit rate : 121 Kbps
    Maximum bit rate : 200 Kbps
    Channel(s) : 2 channels
    Channel positions : Front: L R
    Sampling rate : 44.1 KHz
    Compression mode : Lossy
    Stream size : 73.6 MiB (17%)
    Encoded date : UTC 2012-03-29 19:57:42
    Tagged date : UTC 2012-03-29 19:57:51


    Скриншоты для ознакомления




    Сергей Змеев | Мастер Влияния - Месяц 2 (2012) DVDRip [H.264]
    загрузка...
    Рейтинг →
     (голосов: 1, оценка 5/5, голосовать можно 1 раз )

    Другие торренты по теме:



      Комментарии (0):

      Информация

      Информация

        Посетители, находящиеся в группе Гости, не могут оставлять комментарии в данной новости.

        ↓ Меню




        ↓ Опрос

        Вы добавили сайт в закладки?
        Да
        Нет


        Top 10 за неделю (Книги)

        Александр Ралот | От Бобра. Лесные дали (2017) [MP3] скачать торрент бесплатно

        (просмотров: 201)
        Артем Тихевич | О ментализме. Ангелы и демоны (2014) [DVDRip] скачать через торрент бесплатно

        (просмотров: 11)
        Дона Маркова, Энджи Макартур | Коллективный разум. Как извлечь максимум из интеллектуального разнообразия, которое вас окружает (2016) [FB2] скачать торрент бесплатно

        (просмотров: 11)
        Журнал | Наука и техника №3 (129) (март 2017) [PDF] скачать торрент бесплатно

        (просмотров: 11)
        YoRender | Курс 3ds Max для начинающих (2015) PCRec скачать торрент бесплатно

        (просмотров: 11)
        Фрэнсис Эшкрофт | На грани возможного. Наука выживания (2016) [FB2] скачать торрент бесплатно

        (просмотров: 11)
        Антон Павлович Чехов | Рассказы (1977) [PDF] скачать торрент бесплатно

        (просмотров: 11)
        Дэн Ариели | Вся правда о неправде. Почему и как мы обманываем (2013) [FB2] скачать через торрент бесплатно

        (просмотров: 11)
        М. Лацис | Энциклопедия бани. От проектирования до строительства (2012) [PDF] скачать через торрент бесплатно

        (просмотров: 11)
        Константин Воронин | Выживальщик (2017) [FB2] скачать торрент бесплатно

        (просмотров: 1)